  0
SECTION
  2
HEADER
  9
$ACADVER
  1
AC1027
  9
$ACADMAINTVER
 70
   125
  9
$DWGCODEPAGE
  3
ANSI_1252
  9
$LASTSAVEDBY
  1
ISOBRBOO
  9
$REQUIREDVERSIONS
160
                 0
  9
$INSBASE
 10
0.0
 20
0.0
 30
0.0
  9
$EXTMIN
 10
0.0066990167542826
 20
-0.0046852157101966
 30
-147.0979999999988
  9
$EXTMAX
 10
2602.325871767913
 20
2427.427786704095
 30
0.0
  9
$LIMMIN
 10
0.0
 20
0.0
  9
$LIMMAX
 10
420.0
 20
297.0
  9
$ORTHOMODE
 70
     1
  9
$REGENMODE
 70
     1
  9
$FILLMODE
 70
     1
  9
$QTEXTMODE
 70
     0
  9
$MIRRTEXT
 70
     0
  9
$LTSCALE
 40
1.0
  9
$ATTMODE
 70
     1
  9
$TEXTSIZE
 40
1000.0
  9
$TRACEWID
 40
1.0
  9
$TEXTSTYLE
  7
Standard
  9
$CLAYER
  8
Arcering
  9
$CELTYPE
  6
ByLayer
  9
$CECOLOR
 62
   256
  9
$CELTSCALE
 40
1.0
  9
$DISPSILH
 70
     0
  9
$DIMSCALE
 40
1.0
  9
$DIMASZ
 40
7.5
  9
$DIMEXO
 40
0.625
  9
$DIMDLI
 40
3.75
  9
$DIMRND
 40
0.0
  9
$DIMDLE
 40
0.0
  9
$DIMEXE
 40
1.25
  9
$DIMTP
 40
0.0
  9
$DIMTM
 40
0.0
  9
$DIMTXT
 40
12.5
  9
$DIMCEN
 40
2.5
  9
$DIMTSZ
 40
0.0
  9
$DIMTOL
 70
     0
  9
$DIMLIM
 70
     0
  9
$DIMTIH
 70
     0
  9
$DIMTOH
 70
     0
  9
$DIMSE1
 70
     1
  9
$DIMSE2
 70
     1
  9
$DIMTAD
 70
     1
  9
$DIMZIN
 70
     8
  9
$DIMBLK
  1
Origin
  9
$DIMASO
 70
     1
  9
$DIMSHO
 70
     1
  9
$DIMPOST
  1

  9
$DIMAPOST
  1

  9
$DIMALT
 70
     0
  9
$DIMALTD
 70
     3
  9
$DIMALTF
 40
0.03937007874016
  9
$DIMLFAC
 40
1.0
  9
$DIMTOFL
 70
     1
  9
$DIMTVP
 40
0.0
  9
$DIMTIX
 70
     0
  9
$DIMSOXD
 70
     0
  9
$DIMSAH
 70
     0
  9
$DIMBLK1
  1

  9
$DIMBLK2
  1

  9
$DIMSTYLE
  2
Schaal 1-5
  9
$DIMCLRD
 70
     0
  9
$DIMCLRE
 70
     0
  9
$DIMCLRT
 70
     0
  9
$DIMTFAC
 40
1.0
  9
$DIMGAP
 40
5.0
  9
$DIMJUST
 70
     0
  9
$DIMSD1
 70
     0
  9
$DIMSD2
 70
     0
  9
$DIMTOLJ
 70
     0
  9
$DIMTZIN
 70
     8
  9
$DIMALTZ
 70
     0
  9
$DIMALTTZ
 70
     0
  9
$DIMUPT
 70
     0
  9
$DIMDEC
 70
     0
  9
$DIMTDEC
 70
     0
  9
$DIMALTU
 70
     2
  9
$DIMALTTD
 70
     3
  9
$DIMTXSTY
  7
Standard
  9
$DIMAUNIT
 70
     0
  9
$DIMADEC
 70
     0
  9
$DIMALTRND
 40
0.0
  9
$DIMAZIN
 70
     0
  9
$DIMDSEP
 70
    44
  9
$DIMATFIT
 70
     3
  9
$DIMFRAC
 70
     0
  9
$DIMLDRBLK
  1

  9
$DIMLUNIT
 70
     2
  9
$DIMLWD
 70
    -2
  9
$DIMLWE
 70
    -2
  9
$DIMTMOVE
 70
     0
  9
$DIMFXL
 40
1.0
  9
$DIMFXLON
 70
     0
  9
$DIMJOGANG
 40
0.7853981633974483
  9
$DIMTFILL
 70
     0
  9
$DIMTFILLCLR
 70
     0
  9
$DIMARCSYM
 70
     0
  9
$DIMLTYPE
  6

  9
$DIMLTEX1
  6

  9
$DIMLTEX2
  6

  9
$DIMTXTDIRECTION
 70
     0
  9
$LUNITS
 70
     2
  9
$LUPREC
 70
     3
  9
$SKETCHINC
 40
1.0
  9
$FILLETRAD
 40
12.0
  9
$AUNITS
 70
     0
  9
$AUPREC
 70
     0
  9
$MENU
  1
.
  9
$ELEVATION
 40
0.0
  9
$PELEVATION
 40
0.0
  9
$THICKNESS
 40
0.0
  9
$LIMCHECK
 70
     0
  9
$CHAMFERA
 40
4.2
  9
$CHAMFERB
 40
4.2
  9
$CHAMFERC
 40
20.0
  9
$CHAMFERD
 40
0.0
  9
$SKPOLY
 70
     0
  9
$TDCREATE
 40
2455022.720682871
  9
$TDUCREATE
 40
2455022.637359514
  9
$TDUPDATE
 40
2458968.601284722
  9
$TDUUPDATE
 40
2458968.517951389
  9
$TDINDWG
 40
4.1058570833
  9
$TDUSRTIMER
 40
2458913.481511447
  9
$USRTIMER
 70
     1
  9
$ANGBASE
 50
0.0
  9
$ANGDIR
 70
     0
  9
$PDMODE
 70
     0
  9
$PDSIZE
 40
0.0
  9
$PLINEWID
 40
0.0
  9
$SPLFRAME
 70
     0
  9
$SPLINETYPE
 70
     6
  9
$SPLINESEGS
 70
     8
  9
$HANDSEED
  5
19F3F3
  9
$SURFTAB1
 70
     6
  9
$SURFTAB2
 70
     6
  9
$SURFTYPE
 70
     6
  9
$SURFU
 70
     6
  9
$SURFV
 70
     6
  9
$UCSBASE
  2

  9
$UCSNAME
  2

  9
$UCSORG
 10
0.0
 20
0.0
 30
0.0
  9
$UCSXDIR
 10
1.0
 20
0.0
 30
0.0
  9
$UCSYDIR
 10
0.0
 20
1.0
 30
0.0
  9
$UCSORTHOREF
  2

  9
$UCSORTHOVIEW
 70
     0
  9
$UCSORGTOP
 10
0.0
 20
0.0
 30
0.0
  9
$UCSORGBOTTOM
 10
0.0
 20
0.0
 30
0.0
  9
$UCSORGLEFT
 10
0.0
 20
0.0
 30
0.0
  9
$UCSORGRIGHT
 10
0.0
 20
0.0
 30
0.0
  9
$UCSORGFRONT
 10
0.0
 20
0.0
 30
0.0
  9
$UCSORGBACK
 10
0.0
 20
0.0
 30
0.0
  9
$PUCSBASE
  2

  9
$PUCSNAME
  2

  9
$PUCSORG
 10
0.0
 20
0.0
 30
0.0
  9
$PUCSXDIR
 10
1.0
 20
0.0
 30
0.0
  9
$PUCSYDIR
 10
0.0
 20
1.0
 30
0.0
  9
$PUCSORTHOREF
  2

  9
$PUCSORTHOVIEW
 70
     0
  9
$PUCSORGTOP
 10
0.0
 20
0.0
 30
0.0
  9
$PUCSORGBOTTOM
 10
0.0
 20
0.0
 30
0.0
  9
$PUCSORGLEFT
 10
0.0
 20
0.0
 30
0.0
  9
$PUCSORGRIGHT
 10
0.0
 20
0.0
 30
0.0
  9
$PUCSORGFRONT
 10
0.0
 20
0.0
 30
0.0
  9
$PUCSORGBACK
 10
0.0
 20
0.0
 30
0.0
  9
$USERI1
 70
     0
  9
$USERI2
 70
     0
  9
$USERI3
 70
     0
  9
$USERI4
 70
     0
  9
$USERI5
 70
     0
  9
$USERR1
 40
0.0
  9
$USERR2
 40
0.0
  9
$USERR3
 40
0.0
  9
$USERR4
 40
0.0
  9
$USERR5
 40
0.0
  9
$WORLDVIEW
 70
     1
  9
$SHADEDGE
 70
     3
  9
$SHADEDIF
 70
    70
  9
$TILEMODE
 70
     1
  9
$MAXACTVP
 70
    64
  9
$PINSBASE
 10
0.0
 20
0.0
 30
0.0
  9
$PLIMCHECK
 70
     0
  9
$PEXTMIN
 10
40.49999999999999
 20
25.69999999999999
 30
0.0
  9
$PEXTMAX
 10
364.5
 20
231.3
 30
0.0
  9
$PLIMMIN
 10
0.0
 20
0.0
  9
$PLIMMAX
 10
0.0
 20
0.0
  9
$UNITMODE
 70
     0
  9
$VISRETAIN
 70
     1
  9
$PLINEGEN
 70
     0
  9
$PSLTSCALE
 70
     1
  9
$TREEDEPTH
 70
  3020
  9
$CMLSTYLE
  2
Standard
  9
$CMLJUST
 70
     0
  9
$CMLSCALE
 40
20.0
  9
$PROXYGRAPHICS
 70
     1
  9
$MEASUREMENT
 70
     1
  9
$CELWEIGHT
370
    -1
  9
$ENDCAPS
280
     0
  9
$JOINSTYLE
280
     0
  9
$LWDISPLAY
290
     0
  9
$INSUNITS
 70
     4
  9
$HYPERLINKBASE
  1

  9
$STYLESHEET
  1
PDF A4.ctb
  9
$XEDIT
290
     1
  9
$CEPSNTYPE
380
     0
  9
$PSTYLEMODE
290
     1
  9
$FINGERPRINTGUID
  2
{EC6BB858-51AA-46EC-B484-6C9CC7AB3E2E}
  9
$VERSIONGUID
  2
{9B3B0D98-9AB8-E94D-B668-EB34C73C2743}
  9
$EXTNAMES
290
     1
  9
$PSVPSCALE
 40
0.0
  9
$OLESTARTUP
290
     0
  9
$SORTENTS
280
   127
  9
$INDEXCTL
280
     0
  9
$HIDETEXT
280
     1
  9
$XCLIPFRAME
280
     0
  9
$HALOGAP
280
     0
  9
$OBSCOLOR
 70
   257
  9
$OBSLTYPE
280
     0
  9
$INTERSECTIONDISPLAY
280
     0
  9
$INTERSECTIONCOLOR
 70
   257
  9
$DIMASSOC
280
     2
  9
$PROJECTNAME
  1

  9
$CAMERADISPLAY
290
     0
  9
$LENSLENGTH
 40
50.0
  9
$CAMERAHEIGHT
 40
0.0
  9
$STEPSPERSEC
 40
2.0
  9
$STEPSIZE
 40
6.0
  9
$3DDWFPREC
 40
2.0
  9
$PSOLWIDTH
 40
5.0
  9
$PSOLHEIGHT
 40
80.0
  9
$LOFTANG1
 40
1.570796326794896
  9
$LOFTANG2
 40
1.570796326794896
  9
$LOFTMAG1
 40
0.0
  9
$LOFTMAG2
 40
0.0
  9
$LOFTPARAM
 70
     7
  9
$LOFTNORMALS
280
     1
  9
$LATITUDE
 40
37.795
  9
$LONGITUDE
 40
-122.394
  9
$NORTHDIRECTION
 40
0.0
  9
$TIMEZONE
 70
 -8000
  9
$LIGHTGLYPHDISPLAY
280
     1
  9
$TILEMODELIGHTSYNCH
280
     1
  9
$CMATERIAL
347
73
  9
$SOLIDHIST
280
     1
  9
$SHOWHIST
280
     1
  9
$DWFFRAME
280
     2
  9
$DGNFRAME
280
     2
  9
$REALWORLDSCALE
290
     1
  9
$INTERFERECOLOR
 62
   256
  9
$INTERFEREOBJVS
345
33
  9
$INTERFEREVPVS
346
76
  9
$CSHADOW
280
     0
  9
$SHADOWPLANELOCATION
 40
0.0
  0
ENDSEC
  0
SECTION
  2
CLASSES
  0
CLASS
  1
ACDBDICTIONARYWDFLT
  2
AcDbDictionaryWithDefault
  3
ObjectDBX Classes
 90
        0
 91
        1
280
     0
281
     0
  0
CLASS
  1
VISUALSTYLE
  2
AcDbVisualStyle
  3
ObjectDBX Classes
 90
     4095
 91
       26
280
     0
281
     0
  0
CLASS
  1
TABLESTYLE
  2
AcDbTableStyle
  3
ObjectDBX Classes
 90
     4095
 91
        1
280
     0
281
     0
  0
CLASS
  1
DICTIONARYVAR
  2
AcDbDictionaryVar
  3
ObjectDBX Classes
 90
        0
 91
        8
280
     0
281
     0
  0
CLASS
  1
SCALE
  2
AcDbScale
  3
ObjectDBX Classes
 90
     1153
 91
       36
280
     0
281
     0
  0
CLASS
  1
CELLSTYLEMAP
  2
AcDbCellStyleMap
  3
ObjectDBX Classes
 90
     1152
 91
        2
280
     0
281
     0
  0
CLASS
  1
RASTERVARIABLES
  2
AcDbRasterVariables
  3
ISM
 90
        0
 91
        1
280
     0
281
     0
  0
CLASS
  1
MATERIAL
  2
AcDbMaterial
  3
ObjectDBX Classes
 90
     1153
 91
        5
280
     0
281
     0
  0
CLASS
  1
SUN
  2
AcDbSun
  3
SCENEOE
 90
     1153
 91
        2
280
     0
281
     0
  0
CLASS
  1
MLEADERSTYLE
  2
AcDbMLeaderStyle
  3
ACDB_MLEADERSTYLE_CLASS
 90
     4095
 91
        2
280
     0
281
     0
  0
CLASS
  1
SORTENTSTABLE
  2
AcDbSortentsTable
  3
ObjectDBX Classes
 90
        0
 91
        3
280
     0
281
     0
  0
CLASS
  1
DIMASSOC
  2
AcDbDimAssoc
  3
"AcDbDimAssoc|Product Desc:     AcDim ARX App For Dimension|Company:          Autodesk, Inc.|WEB Address:      www.autodesk.com"
 90
        0
 91
      919
280
     0
281
     0
  0
CLASS
  1
IMAGEDEF
  2
AcDbRasterImageDef
  3
ISM
 90
        0
 91
        3
280
     0
281
     0
  0
CLASS
  1
IMAGE
  2
AcDbRasterImage
  3
ISM
 90
     2175
 91
       79
280
     0
281
     1
  0
CLASS
  1
IMAGEDEF_REACTOR
  2
AcDbRasterImageDefReactor
  3
ISM
 90
        1
 91
       81
280
     0
281
     0
  0
CLASS
  1
WIPEOUT
  2
AcDbWipeout
  3
WipeOut|Product Desc: Object Enabler for WipeOut entity | Company: Autodesk, Inc. | WEB Address: www.autodesk.com
 90
     2175
 91
        0
280
     0
281
     1
  0
CLASS
  1
SURFACE
  2
AcDbSurface
  3
ObjectDBX Classes
 90
     4095
 91
       15
280
     0
281
     1
  0
CLASS
  1
ACDBSECTIONVIEWSTYLE
  2
AcDbSectionViewStyle
  3
ObjectDBX Classes
 90
     1025
 91
        1
280
     0
281
     0
  0
CLASS
  1
ACDBDETAILVIEWSTYLE
  2
AcDbDetailViewStyle
  3
ObjectDBX Classes
 90
     1025
 91
        1
280
     0
281
     0
  0
CLASS
  1
FIELD
  2
AcDbField
  3
ObjectDBX Classes
 90
     1152
 91
        6
280
     0
281
     0
  0
CLASS
  1
FIELDLIST
  2
AcDbFieldList
  3
ObjectDBX Classes
 90
     1152
 91
        1
280
     0
281
     0
  0
CLASS
  1
ACAD_EVALUATION_GRAPH
  2
AcDbEvalGraph
  3
ObjectDBX Classes
 90
     1153
 91
        0
280
     0
281
     0
  0
CLASS
  1
ACAECUSTOBJ
  2
AcAeEditorObj
  3
AcAeEditorObj
 90
     1024
 91
        0
280
     0
281
     0
  0
CLASS
  1
ACDB_DYNAMICBLOCKPURGEPREVENTER_VERSION
  2
AcDbDynamicBlockPurgePreventer
  3
ObjectDBX Classes
 90
     1153
 91
        0
280
     0
281
     0
  0
ENDSEC
  0
SECTION
  2
TABLES
  0
TABLE
  2
VPORT
  5
8
330
0
100
AcDbSymbolTable
 70
     1
1001
ACAD
1000
DbSaveVer
1071
       11
  0
VPORT
  5
29
330
8
100
AcDbSymbolTableRecord
100
AcDbViewportTableRecord
  2
*ACTIVE
 70
     0
 10
0.0
 20
0.0
 11
1.0
 21
1.0
 12
1077.480920938775
 22
955.5434014283289
 13
0.0
 23
0.0
 14
10.0
 24
10.0
 15
10.0
 25
10.0
 16
0.0
 26
0.0
 36
1.0
 17
0.0
 27
0.0
 37
0.0
 40
2758.500932434235
 41
2.450830140485313
 42
50.0
 43
0.0
 44
0.0
 50
0.0
 51
0.0
 71
     0
 72
  1000
 73
     1
 74
     3
 75
     0
 76
     0
 77
     0
 78
     0
281
     0
 65
     1
110
0.0
120
0.0
130
0.0
111
1.0
121
0.0
131
0.0
112
0.0
122
1.0
132
0.0
 79
     0
146
0.0
348
2F
 60
     3
 61
     5
292
     0
282
     1
141
0.0
142
0.0
361
80
1001
ACAD_NAV_VCDISPLAY
1070
     3
  0
ENDTAB
  0
TABLE
  2
LTYPE
  5
5
330
0
100
AcDbSymbolTable
 70
    12
  0
LTYPE
  5
14
330
5
100
AcDbSymbolTableRecord
100
AcDbLinetypeTableRecord
  2
ByBlock
 70
     0
  3

 72
    65
 73
     0
 40
0.0
  0
LTYPE
  5
15
330
5
100
AcDbSymbolTableRecord
100
AcDbLinetypeTableRecord
  2
ByLayer
 70
     0
  3

 72
    65
 73
     0
 40
0.0
  0
LTYPE
  5
16
330
5
100
AcDbSymbolTableRecord
100
AcDbLinetypeTableRecord
  2
Continuous
 70
     0
  3
Solid line
 72
    65
 73
     0
 40
0.0
  0
LTYPE
  5
203
330
5
100
AcDbSymbolTableRecord
100
AcDbLinetypeTableRecord
  2
HIDDEN
 70
     0
  3
Hidden _ _ _ _ _ _ _ _ _ _ _ _ _ _ _ _ _ _ _ _ 
 72
    65
 73
     2
 40
9.524999999999998
 49
6.349999999999999
 74
     0
 49
-3.174999999999999
 74
     0
  0
LTYPE
  5
4F3
330
5
100
AcDbSymbolTableRecord
100
AcDbLinetypeTableRecord
  2
DASHDOT
 70
     0
  3
DashDot __  . __  . __  . __  . __  . __  . __ 
 72
    65
 73
     4
 40
25.4
 49
12.7
 74
     0
 49
-6.349999999999999
 74
     0
 49
0.0
 74
     0
 49
-6.349999999999999
 74
     0
  0
ENDTAB
  0
TABLE
  2
LAYER
  5
2
102
{ACAD_XDICTIONARY
360
BD
102
}
330
0
100
AcDbSymbolTable
 70
    66
  0
LAYER
  5
10
330
2
100
AcDbSymbolTableRecord
100
AcDbLayerTableRecord
  2
0
 70
     0
 62
     7
  6
Continuous
370
    -3
390
F
347
75
348
0
1001
AcCmTransparency
1071
 33554687
  0
LAYER
  5
D6
330
2
100
AcDbSymbolTableRecord
100
AcDbLayerTableRecord
  2
Defpoints
 70
     0
 62
     6
  6
Continuous
290
     0
370
    -3
390
F
347
75
348
0
1001
AcCmTransparency
1071
 33554687
  0
LAYER
  5
52E
330
2
100
AcDbSymbolTableRecord
100
AcDbLayerTableRecord
  2
Maatvoering
 70
     0
 62
     7
  6
Continuous
370
     5
390
F
347
75
348
0
1001
AcAecLayerStandard
1000

1000

1001
AcCmTransparency
1071
 33554687
  0
LAYER
  5
660
330
2
100
AcDbSymbolTableRecord
100
AcDbLayerTableRecord
  2
Tekst
 70
     0
 62
     7
  6
Continuous
370
     5
390
F
347
75
348
0
1001
AcAecLayerStandard
1000

1000

1001
AcCmTransparency
1071
 33554687
  0
LAYER
  5
DD0
330
2
100
AcDbSymbolTableRecord
100
AcDbLayerTableRecord
  2
Bevestigingsmiddelen
 70
     0
 62
   252
  6
Continuous
370
     5
390
F
347
75
348
0
1001
AcAecLayerStandard
1000

1000

1001
AcCmTransparency
1071
 33554687
  0
LAYER
  5
122B
330
2
100
AcDbSymbolTableRecord
100
AcDbLayerTableRecord
  2
Hulplijn
 70
     0
 62
     6
  6
Continuous
290
     0
370
    -3
390
F
347
75
348
0
1001
AcAecLayerStandard
1000

1000

1001
AcCmTransparency
1071
 33554687
  0
LAYER
  5
8CD8C
330
2
100
AcDbSymbolTableRecord
100
AcDbLayerTableRecord
  2
Arcering
 70
     0
 62
     7
  6
Continuous
370
     5
390
F
347
75
348
0
1001
AcAecLayerStandard
1000

1000

1001
AcCmTransparency
1071
 33554687
  0
LAYER
  5
8D2D9
330
2
100
AcDbSymbolTableRecord
100
AcDbLayerTableRecord
  2
007_1_glaswol_0.038
 70
     0
 62
     2
  6
Continuous
370
    15
390
F
347
75
348
0
1001
AcAecLayerStandard
1000

1000

1001
AcCmTransparency
1071
 33554687
  0
LAYER
  5
8D2DB
330
2
100
AcDbSymbolTableRecord
100
AcDbLayerTableRecord
  2
011_1_multiplex_0.17
 70
     0
 62
     3
  6
Continuous
370
    15
390
F
347
75
348
0
1001
AcAecLayerStandard
1000

1000

1001
AcCmTransparency
1071
 33554687
  0
LAYER
  5
8D2DF
330
2
100
AcDbSymbolTableRecord
100
AcDbLayerTableRecord
  2
012_1_gevelklinker_1.3
 70
     0
 62
     1
  6
Continuous
370
    15
390
F
347
75
348
0
1001
AcAecLayerStandard
1000

1000

1001
AcCmTransparency
1071
 33554687
  0
LAYER
  5
8D2E6
330
2
100
AcDbSymbolTableRecord
100
AcDbLayerTableRecord
  2
041_1_pvc_0.17
 70
     0
 62
     2
  6
Continuous
370
    15
390
F
347
75
348
0
1001
AcAecLayerStandard
1000

1000

1001
AcCmTransparency
1071
 33554687
  0
LAYER
  5
8D2E8
330
2
100
AcDbSymbolTableRecord
100
AcDbLayerTableRecord
  2
044_1_kalkzandsteen_λ_0.9
 70
     0
 62
     1
  6
Continuous
370
    15
390
F
347
75
348
0
1001
AcAecLayerStandard
1000

1000

1001
AcCmTransparency
1071
 33554687
  0
LAYER
  5
8D2ED
330
2
100
AcDbSymbolTableRecord
100
AcDbLayerTableRecord
  2
058_1_staal_λ_50
 70
     0
 62
     4
  6
Continuous
370
    15
390
F
347
75
348
0
1001
AcAecLayerStandard
1000

1000

1001
AcCmTransparency
1071
 33554687
  0
LAYER
  5
8D2F0
330
2
100
AcDbSymbolTableRecord
100
AcDbLayerTableRecord
  2
067_1_dakbeschot_λ_0.16
 70
     0
 62
     3
  6
Continuous
370
    15
390
F
347
75
348
0
1001
AcAecLayerStandard
1000

1000

1001
AcCmTransparency
1071
 33554687
  0
LAYER
  5
8E0FA
330
2
100
AcDbSymbolTableRecord
100
AcDbLayerTableRecord
  2
109_1_keramische_tegels_λ_1.3
 70
     0
 62
     1
  6
Continuous
370
    15
390
F
347
75
348
0
1001
AcAecLayerStandard
1000

1000

1001
AcCmTransparency
1071
 33554687
  0
LAYER
  5
8E0FE
330
2
100
AcDbSymbolTableRecord
100
AcDbLayerTableRecord
  2
143_1_gewapend_beton_λ_2.5
 70
     0
 62
     1
  6
Continuous
370
    15
390
F
347
75
348
0
1001
AcAecLayerStandard
1000

1000

1001
AcCmTransparency
1071
 33554687
  0
LAYER
  5
8E0FF
330
2
100
AcDbSymbolTableRecord
100
AcDbLayerTableRecord
  2
156_1_eps_hr_λ_0.030
 70
     0
 62
    30
420
 16737792
  6
Continuous
370
    15
390
F
347
75
348
0
1001
AcAecLayerStandard
1000

1000

1001
AcCmTransparency
1071
 33554687
  0
LAYER
  5
8E101
330
2
100
AcDbSymbolTableRecord
100
AcDbLayerTableRecord
  2
163_1_naaldhout_λ_0.14
 70
     0
 62
     3
  6
Continuous
370
    15
390
F
347
75
348
0
1001
AcAecLayerStandard
1000

1000

1001
AcCmTransparency
1071
 33554687
  0
LAYER
  5
8E105
330
2
100
AcDbSymbolTableRecord
100
AcDbLayerTableRecord
  2
168_1_afwerklaag_zand_en_cement_λ_1.5
 70
     0
 62
     1
  6
Continuous
370
    15
390
F
347
75
348
0
1001
AcAecLayerStandard
1000

1000

1001
AcCmTransparency
1071
 33554687
  0
LAYER
  5
8E136
330
2
100
AcDbSymbolTableRecord
100
AcDbLayerTableRecord
  2
028_1_eps_0.038
 70
     0
 62
    30
420
 16737792
  6
Continuous
370
    15
390
F
347
75
348
0
1001
AcAecLayerStandard
1000

1000

1001
AcCmTransparency
1071
 33554687
  0
LAYER
  5
B0340
330
2
100
AcDbSymbolTableRecord
100
AcDbLayerTableRecord
  2
103_1_pu_foam_λ_0.05
 70
     0
 62
     2
  6
Continuous
370
    15
390
F
347
75
348
0
1001
AcAecLayerStandard
1000

1000

1001
AcCmTransparency
1071
 33554687
  0
ENDTAB
  0
TABLE
  2
STYLE
  5
3
330
0
100
AcDbSymbolTable
 70
    10
  0
STYLE
  5
11
330
3
100
AcDbSymbolTableRecord
100
AcDbTextStyleTableRecord
  2
Standard
 70
     0
 40
0.0
 41
1.0
 50
0.0
 71
     0
 42
1000.0
  3
arial.ttf
  4

1001
ACAD
1000
Arial
1071
        0
  0
ENDTAB
  0
TABLE
  2
VIEW
  5
6
330
0
100
AcDbSymbolTable
 70
     2
  0
ENDTAB
  0
TABLE
  2
UCS
  5
7
330
0
100
AcDbSymbolTable
 70
     0
  0
ENDTAB
  0
TABLE
  2
APPID
  5
9
330
0
100
AcDbSymbolTable
 70
    21
  0
APPID
  5
12
330
9
100
AcDbSymbolTableRecord
100
AcDbRegAppTableRecord
  2
ACAD
 70
     0
  0
APPID
  5
B9
330
9
100
AcDbSymbolTableRecord
100
AcDbRegAppTableRecord
  2
AcadAnnotative
 70
     0
  0
APPID
  5
F5
330
9
100
AcDbSymbolTableRecord
100
AcDbRegAppTableRecord
  2
AcCmTransparency
 70
     0
  0
APPID
  5
F8
330
9
100
AcDbSymbolTableRecord
100
AcDbRegAppTableRecord
  2
ACAD_PSEXT
 70
     0
  0
APPID
  5
138
330
9
100
AcDbSymbolTableRecord
100
AcDbRegAppTableRecord
  2
AcAecLayerStandard
 70
     0
  0
APPID
  5
150
330
9
100
AcDbSymbolTableRecord
100
AcDbRegAppTableRecord
  2
PE_URL
 70
     0
  0
APPID
  5
2BF
330
9
100
AcDbSymbolTableRecord
100
AcDbRegAppTableRecord
  2
ARCADE_ALFA
 70
     0
  0
APPID
  5
451
330
9
100
AcDbSymbolTableRecord
100
AcDbRegAppTableRecord
  2
CONTENTBLOCKICON
 70
     0
  0
APPID
  5
453
330
9
100
AcDbSymbolTableRecord
100
AcDbRegAppTableRecord
  2
ACAD_NAV_VCDISPLAY
 70
     0
  0
APPID
  5
6F4
330
9
100
AcDbSymbolTableRecord
100
AcDbRegAppTableRecord
  2
PE_CLOUD
 70
     0
  0
APPID
  5
756
330
9
100
AcDbSymbolTableRecord
100
AcDbRegAppTableRecord
  2
ACAD_DSTYLE_DIMRADIAL_EXTENSION
 70
     0
  0
APPID
  5
91698
330
9
100
AcDbSymbolTableRecord
100
AcDbRegAppTableRecord
  2
GradientColor1ACI
 70
     0
  0
APPID
  5
91699
330
9
100
AcDbSymbolTableRecord
100
AcDbRegAppTableRecord
  2
GradientColor2ACI
 70
     0
  0
APPID
  5
B13A6
330
9
100
AcDbSymbolTableRecord
100
AcDbRegAppTableRecord
  2
AcDbBlockRepETag
 70
     0
  0
APPID
  5
196C42
330
9
100
AcDbSymbolTableRecord
100
AcDbRegAppTableRecord
  2
ACAD_EXEMPT_FROM_CAD_STANDARDS
 70
     0
  0
APPID
  5
198FD3
330
9
100
AcDbSymbolTableRecord
100
AcDbRegAppTableRecord
  2
ACAUTHENVIRON
 70
     0
  0
APPID
  5
198FD7
330
9
100
AcDbSymbolTableRecord
100
AcDbRegAppTableRecord
  2
AcDbDynamicBlockTrueName
 70
     0
  0
APPID
  5
198FD8
330
9
100
AcDbSymbolTableRecord
100
AcDbRegAppTableRecord
  2
AcDbDynamicBlockGUID
 70
     0
  0
APPID
  5
19AD00
330
9
100
AcDbSymbolTableRecord
100
AcDbRegAppTableRecord
  2
AcadAnnoMonitorAlertIconDisabled
 70
     0
  0
APPID
  5
19B710
330
9
100
AcDbSymbolTableRecord
100
AcDbRegAppTableRecord
  2
ACAD_DSTYLE_DIMJAG
 70
     0
  0
APPID
  5
19B711
330
9
100
AcDbSymbolTableRecord
100
AcDbRegAppTableRecord
  2
ACAD_DSTYLE_DIMTALN
 70
     0
  0
ENDTAB
  0
TABLE
  2
DIMSTYLE
  5
A
330
0
100
AcDbSymbolTable
 70
    11
100
AcDbDimStyleTable
 71
     1
340
947
  0
DIMSTYLE
105
F6
330
A
100
AcDbSymbolTableRecord
100
AcDbDimStyleTableRecord
  2
Standard
 70
     0
340
11
  0
DIMSTYLE
105
947
102
{ACAD_REACTORS
330
19F258
330
19F25A
330
19F25C
330
19F25E
102
}
330
A
100
AcDbSymbolTableRecord
100
AcDbDimStyleTableRecord
  2
Schaal 1-5
 70
     0
 41
7.5
 42
0.625
 43
3.75
 44
1.25
 73
     0
 74
     0
 75
     1
 76
     1
 77
     1
 78
     8
140
12.5
141
2.5
143
0.03937007874016
147
5.0
171
     3
172
     1
271
     0
272
     2
274
     3
278
    44
283
     0
284
     8
340
11
342
519
  0
ENDTAB
  0
TABLE
  2
BLOCK_RECORD
  5
1
330
0
100
AcDbSymbolTable
 70
  1322
  0
BLOCK_RECORD
  5
1F
102
{ACAD_XDICTIONARY
360
C7
102
}
330
1
100
AcDbSymbolTableRecord
100
AcDbBlockTableRecord
  2
*Model_Space
340
22
 70
     0
280
     1
281
     0
  0
BLOCK_RECORD
  5
8C467
330
1
100
AcDbSymbolTableRecord
100
AcDbBlockTableRecord
  2
*Paper_Space
340
8C468
 70
     0
280
     1
281
     0
  0
BLOCK_RECORD
  5
519
330
1
100
AcDbSymbolTableRecord
100
AcDbBlockTableRecord
  2
_Origin
340
0
102
{BLKREFS
331
19F2D0
331
19F2D1
331
19F2DA
331
19F2DB
331
19F2E4
331
19F2E5
331
19F2EE
331
19F2EF
102
}
 70
     0
280
     1
281
     0
  0
BLOCK_RECORD
  5
17C09
330
1
100
AcDbSymbolTableRecord
100
AcDbBlockTableRecord
  2
aanduidingspunt
340
0
102
{BLKREFS
331
19F24E
102
}
 70
     4
280
     1
281
     0
1001
PE_URL
1000

  0
BLOCK_RECORD
  5
8B04F
330
1
100
AcDbSymbolTableRecord
100
AcDbBlockTableRecord
  2
aanduidingspunt zwart
340
0
102
{BLKREFS
331
19F2C7
331
19F2C8
331
19F2C9
331
19F2CA
331
19F2CB
102
}
 70
     0
280
     1
281
     0
1001
PE_URL
1000

  0
BLOCK_RECORD
  5
AF4F7
330
1
100
AcDbSymbolTableRecord
100
AcDbBlockTableRecord
  2
Muurplaatanker
340
0
102
{BLKREFS
331
19F269
102
}
 70
     4
280
     1
281
     0
  0
BLOCK_RECORD
  5
1590B7
330
1
100
AcDbSymbolTableRecord
100
AcDbBlockTableRecord
  2
RenoGoot en RenoVogelvide V20.1 3D
340
0
102
{BLKREFS
331
19F2BF
102
}
 70
     4
280
     1
281
     0
  0
BLOCK_RECORD
  5
18189D
102
{ACAD_XDICTIONARY
360
199023
102
}
330
1
100
AcDbSymbolTableRecord
100
AcDbBlockTableRecord
  2
mus nest
340
0
102
{BLKREFS
331
19F2B4
102
}
 70
     4
280
     1
281
     0
1001
AcDbDynamicBlockGUID
1000
{9AEF270A-61A9-B44D-B086-0CC9C11F3FC8}
  0
BLOCK_RECORD
  5
181BB7
102
{ACAD_XDICTIONARY
360
198FD4
102
}
330
1
100
AcDbSymbolTableRecord
100
AcDbBlockTableRecord
  2
mus
340
0
102
{BLKREFS
331
19F2C2
102
}
 70
     4
280
     1
281
     0
1001
AcDbDynamicBlockGUID
1000
{83628521-20E1-2643-9583-59AC206E30F9}
  0
BLOCK_RECORD
  5
19F2CC
330
1
100
AcDbSymbolTableRecord
100
AcDbBlockTableRecord
  2
*D1318
340
0
 70
     0
280
     1
281
     0
  0
BLOCK_RECORD
  5
19F2D6
330
1
100
AcDbSymbolTableRecord
100
AcDbBlockTableRecord
  2
*D1319
340
0
 70
     0
280
     1
281
     0
  0
BLOCK_RECORD
  5
19F2E0
330
1
100
AcDbSymbolTableRecord
100
AcDbBlockTableRecord
  2
*D1320
340
0
 70
     0
280
     1
281
     0
  0
BLOCK_RECORD
  5
19F2EA
330
1
100
AcDbSymbolTableRecord
100
AcDbBlockTableRecord
  2
*D1321
340
0
 70
     0
280
     1
281
     0
  0
ENDTAB
  0
ENDSEC
  0
SECTION
  2
BLOCKS
  0
BLOCK
  5
20
330
1F
100
AcDbEntity
  8
0
100
AcDbBlockBegin
  2
*Model_Space
 70
     0
 10
0.0
 20
0.0
 30
0.0
  3
*Model_Space
  1

  0
ENDBLK
  5
21
330
1F
100
AcDbEntity
  8
0
100
AcDbBlockEnd
  0
BLOCK
  5
8C469
330
8C467
100
AcDbEntity
 67
     1
  8
0
100
AcDbBlockBegin
  2
*Paper_Space
 70
     0
 10
0.0
 20
0.0
 30
0.0
  3
*Paper_Space
  1

  0
ENDBLK
  5
8C46A
330
8C467
100
AcDbEntity
 67
     1
  8
0
100
AcDbBlockEnd
  0
BLOCK
  5
1383B
330
519
100
AcDbEntity
  8
0
100
AcDbBlockBegin
  2
_Origin
 70
     0
 10
0.0
 20
0.0
 30
0.0
  3
_Origin
  1

  0
CIRCLE
  5
1383D
330
519
100
AcDbEntity
  8
0
  6
ByBlock
 62
     0
370
    20
100
AcDbCircle
 10
0.0
 20
0.0
 30
0.0
 40
0.25
  0
LINE
  5
1383E
330
519
100
AcDbEntity
  8
0
  6
ByBlock
 62
     0
370
    -2
100
AcDbLine
 10
0.0
 20
0.0
 30
0.0
 11
-1.0
 21
0.0
 31
0.0
  0
LINE
  5
1383F
330
519
100
AcDbEntity
  8
0
370
    20
100
AcDbLine
 10
0.0000000000004547
 20
0.8333333333339396
 30
0.0
 11
0.0000000000004547
 21
-0.8333333333339396
 31
0.0
  0
ENDBLK
  5
13840
330
519
100
AcDbEntity
  8
0
100
AcDbBlockEnd
  0
BLOCK
  5
17C0C
330
17C09
100
AcDbEntity
  8
0
100
AcDbBlockBegin
  2
aanduidingspunt
 70
     0
 10
0.0
 20
0.0
 30
0.0
  3
aanduidingspunt
  1

  0
LWPOLYLINE
  5
17C0A
102
{ACAD_REACTORS
330
17C85
330
17C63
102
}
330
17C09
100
AcDbEntity
  8
0
 62
    30
420
 16737792
100
AcDbPolyline
 90
        5
 70
     0
 43
0.0
 10
8235.337953193541
 20
16791.52047104281
 10
8236.837953193541
 20
16793.02047104281
 10
8238.337953193541
 20
16791.52047104281
 10
8236.837953193541
 20
16790.02047104281
 10
8235.337953193541
 20
16791.52047104281
1001
PE_URL
1000

  0
LWPOLYLINE
  5
17C0B
102
{ACAD_REACTORS
330
17C63
102
}
330
17C09
100
AcDbEntity
  8
0
 62
    30
420
 16737792
100
AcDbPolyline
 90
        6
 70
     0
 43
0.0
 10
8236.837953193541
 20
16793.02047104281
 10
8236.837953193541
 20
16790.02047104281
 10
8236.837953193541
 20
16791.52047104281
 10
8238.337953193541
 20
16791.52047104281
 10
8236.837953193541
 20
16791.52047104281
 10
8235.337953193541
 20
16791.52047104281
  0
HATCH
  5
17C63
330
17C09
100
AcDbEntity
  8
0
 62
    30
420
 16737792
100
AcDbHatch
 10
0.0
 20
0.0
 30
0.0
210
0.0
220
0.0
230
1.0
  2
SOLID
 70
     1
 71
     1
 91
        4
 92
        7
 72
     0
 73
     1
 93
        3
 10
8238.337953193541
 20
16791.52047104281
 10
8236.837953193539
 20
16793.02047104281
 10
8236.837953193537
 20
16791.5204710428
 97
        2
330
17C0A
330
17C0B
 92
        7
 72
     0
 73
     1
 93
        3
 10
8236.837953193537
 20
16791.5204710428
 10
8236.837953193539
 20
16793.02047104281
 10
8235.337953193539
 20
16791.52047104281
 97
        2
330
17C0B
330
17C0A
 92
        7
 72
     0
 73
     1
 93
        3
 10
8236.837953193541
 20
16790.02047104281
 10
8236.837953193537
 20
16791.5204710428
 10
8235.337953193539
 20
16791.52047104281
 97
        2
330
17C0B
330
17C0A
 92
        7
 72
     0
 73
     1
 93
        3
 10
8236.837953193539
 20
16790.02047104281
 10
8238.337953193541
 20
16791.52047104281
 10
8236.837953193537
 20
16791.5204710428
 97
        2
330
17C0A
330
17C0B
 75
     0
 76
     1
 47
0.0
 98
        4
 10
8237.210797118398
 20
16792.29507528106
 10
8236.501110113987
 20
16791.93327406313
 10
8236.348040367937
 20
16791.16792533288
 10
8237.224712549858
 20
16791.27924878455
450
        0
451
        0
460
0.0
461
0.0
452
        1
462
0.0
453
        0
470

1001
ACAD
1010
0.0
1020
0.0
1030
0.0
  0
HATCH
  5
17C85
330
17C09
100
AcDbEntity
  8
0
 62
    30
420
 16737792
100
AcDbHatch
 10
0.0
 20
0.0
 30
0.0
210
0.0
220
0.0
230
1.0
  2
SOLID
 70
     1
 71
     1
 91
        4
 92
        7
 72
     1
 73
     1
 93
        2
 10
8236.837953193541
 20
16790.02047104281
 42
0.4142135623733339
 10
8238.337953193541
 20
16791.52047104281
 42
0.0
 97
        2
330
17C86
330
17C0A
 92
        7
 72
     1
 73
     1
 93
        2
 10
8238.337953193541
 20
16791.52047104281
 42
0.4142135623733339
 10
8236.837953193541
 20
16793.02047104281
 42
0.0
 97
        2
330
17C86
330
17C0A
 92
        7
 72
     1
 73
     1
 93
        2
 10
8235.337953193541
 20
16791.52047104281
 42
0.0
 10
8236.837953193541
 20
16793.02047104281
 42
0.4142135623733339
 97
        2
330
17C0A
330
17C86
 92
        7
 72
     1
 73
     1
 93
        2
 10
8236.837953193541
 20
16790.02047104281
 42
0.0
 10
8235.337953193541
 20
16791.52047104281
 42
0.4142135623733339
 97
        2
330
17C0A
330
17C86
 75
     0
 76
     1
 47
0.0
 98
        4
 10
8238.086300340125
 20
16790.79081526793
 10
8238.034117472155
 20
16792.09538696722
 10
8236.277294250447
 20
16792.63460993626
 10
8235.772859860055
 20
16790.99954673982
450
        0
451
        0
460
0.0
461
0.0
452
        1
462
0.0
453
        0
470

1001
ACAD
1010
0.0
1020
0.0
1030
0.0
1001
PE_URL
1000

  0
CIRCLE
  5
17C86
102
{ACAD_REACTORS
330
17C85
102
}
330
17C09
100
AcDbEntity
  8
0
 62
    30
420
 16737792
100
AcDbCircle
 10
8236.837953193541
 20
16791.52047104281
 30
0.0
 40
1.5
1001
PE_URL
1000

  0
ENDBLK
  5
17C0D
330
17C09
100
AcDbEntity
  8
0
100
AcDbBlockEnd
  0
BLOCK
  5
8B050
330
8B04F
100
AcDbEntity
  8
0
100
AcDbBlockBegin
  2
aanduidingspunt zwart
 70
     0
 10
0.0
 20
0.0
 30
0.0
  3
aanduidingspunt zwart
  1

  0
LWPOLYLINE
  5
8B053
330
8B04F
100
AcDbEntity
  8
Tekst
100
AcDbPolyline
 90
        2
 70
     0
 43
0.0
 10
8236.837953193543
 20
16791.64547104281
 10
8236.837953193543
 20
16791.39547104281
  0
CIRCLE
  5
8B056
330
8B04F
100
AcDbEntity
  8
Tekst
100
AcDbCircle
 10
8236.837953193543
 20
16791.52047104281
 30
0.0
 40
0.125
1001
PE_URL
1000

  0
LWPOLYLINE
  5
8B06F
330
8B04F
100
AcDbEntity
  8
Tekst
100
AcDbPolyline
 90
        3
 70
     0
 43
0.0
 10
8236.837953193543
 20
16791.39547104281
 10
8236.837953193543
 20
16791.52047104281
 10
8236.962953193543
 20
16791.52047104281
  0
LWPOLYLINE
  5
8B070
330
8B04F
100
AcDbEntity
  8
Tekst
100
AcDbPolyline
 90
        3
 70
     0
 43
0.0
 10
8236.962953193543
 20
16791.52047104281
 10
8236.837953193543
 20
16791.52047104281
 10
8236.712953193544
 20
16791.52047104281
  0
HATCH
  5
D2EA1
330
8B04F
100
AcDbEntity
  8
Tekst
100
AcDbHatch
 10
0.0
 20
0.0
 30
0.0
210
0.0
220
0.0
230
1.0
  2
SOLID
 70
     1
 71
     0
 91
        1
 92
        7
 72
     1
 73
     1
 93
        2
 10
8236.962953193543
 20
16791.52047104281
 42
1.00000000000291
 10
8236.712953193544
 20
16791.52047104281
 42
0.9999999999970894
 97
        0
 75
     0
 76
     1
 47
0.0
 98
        1
 10
8236.896554429085
 20
16791.52627098916
450
        0
451
        0
460
0.0
461
0.0
452
        1
462
0.0
453
        0
470

1001
ACAD
1010
0.0
1020
0.0
1030
0.0
1001
PE_URL
1000

  0
ENDBLK
  5
8B051
330
8B04F
100
AcDbEntity
  8
0
100
AcDbBlockEnd
  0
BLOCK
  5
AF50B
330
AF4F7
100
AcDbEntity
  8
0
100
AcDbBlockBegin
  2
Muurplaatanker
 70
     0
 10
0.0
 20
0.0
 30
0.0
  3
Muurplaatanker
  1

  0
LINE
  5
AF4F9
330
AF4F7
100
AcDbEntity
  8
Bevestigingsmiddelen
  6
HIDDEN
100
AcDbLine
 10
2559.020595230402
 20
19838.97399557707
 30
0.191617
 11
2559.020595230402
 21
20018.97399557707
 31
0.191617
  0
LINE
  5
AF4FA
330
AF4F7
100
AcDbEntity
  8
Bevestigingsmiddelen
100
AcDbLine
 10
2550.520595230402
 20
20018.97399557707
 30
0.191617
 11
2578.520595230402
 21
20018.97399557707
 31
0.191617
  0
LINE
  5
AF4FB
330
AF4F7
100
AcDbEntity
  8
Bevestigingsmiddelen
100
AcDbLine
 10
2578.520595230402
 20
20018.97399557707
 30
0.191617
 11
2578.520595230402
 21
20022.47399557707
 31
0.191617
  0
LINE
  5
AF4FC
330
AF4F7
100
AcDbEntity
  8
Bevestigingsmiddelen
100
AcDbLine
 10
2578.520595230402
 20
20022.47399557707
 30
0.191617
 11
2564.520595230403
 21
20022.47399557707
 31
0.191617
  0
LINE
  5
AF4FD
330
AF4F7
100
AcDbEntity
  8
Bevestigingsmiddelen
100
AcDbLine
 10
2564.520595230403
 20
20022.47399557707
 30
0.191617
 11
2564.520595230403
 21
20029.47399557707
 31
0.191617
  0
LINE
  5
AF4FE
330
AF4F7
100
AcDbEntity
  8
Bevestigingsmiddelen
100
AcDbLine
 10
2564.520595230403
 20
20029.47399557707
 30
0.191617
 11
2560.520595230402
 21
20029.47399557707
 31
0.191617
  0
LINE
  5
AF4FF
330
AF4F7
100
AcDbEntity
  8
Bevestigingsmiddelen
100
AcDbLine
 10
2559.020595230402
 20
20029.47399557707
 30
0.191617
 11
2559.020595230402
 21
20038.47399557707
 31
0.191617
  0
LINE
  5
AF500
330
AF4F7
100
AcDbEntity
  8
Bevestigingsmiddelen
  6
HIDDEN
100
AcDbLine
 10
2552.020595230402
 20
19845.97399557707
 30
0.191617
 11
2552.020595230402
 21
20018.97399557707
 31
0.191617
  0
LINE
  5
AF501
330
AF4F7
100
AcDbEntity
  8
Bevestigingsmiddelen
100
AcDbLine
 10
2532.520595230403
 20
20018.97399557707
 30
0.191617
 11
2550.520595230402
 21
20018.97399557707
 31
0.191617
  0
LINE
  5
AF502
330
AF4F7
100
AcDbEntity
  8
Bevestigingsmiddelen
100
AcDbLine
 10
2532.520595230403
 20
20018.97399557707
 30
0.191617
 11
2532.520595230403
 21
20022.47399557707
 31
0.191617
  0
LINE
  5
AF503
330
AF4F7
100
AcDbEntity
  8
Bevestigingsmiddelen
100
AcDbLine
 10
2564.520595230403
 20
20022.47399557707
 30
0.191617
 11
2532.520595230403
 21
20022.47399557707
 31
0.191617
  0
LINE
  5
AF504
330
AF4F7
100
AcDbEntity
  8
Bevestigingsmiddelen
100
AcDbLine
 10
2546.520595230402
 20
20022.47399557707
 30
0.191617
 11
2546.520595230402
 21
20029.47399557707
 31
0.191617
  0
LINE
  5
AF505
330
AF4F7
100
AcDbEntity
  8
Bevestigingsmiddelen
100
AcDbLine
 10
2560.520595230402
 20
20029.47399557707
 30
0.191617
 11
2546.520595230402
 21
20029.47399557707
 31
0.191617
  0
LINE
  5
AF506
330
AF4F7
100
AcDbEntity
  8
Bevestigingsmiddelen
100
AcDbLine
 10
2552.020595230402
 20
20029.47399557707
 30
0.191617
 11
2552.020595230402
 21
20038.47399557707
 31
0.191617
  0
LINE
  5
AF507
330
AF4F7
100
AcDbEntity
  8
Bevestigingsmiddelen
100
AcDbLine
 10
2552.020595230402
 20
20038.47399557707
 30
0.191617
 11
2559.020595230402
 21
20038.47399557707
 31
0.191617
  0
LINE
  5
AF508
330
AF4F7
100
AcDbEntity
  8
Hulplijn
  6
HIDDEN
100
AcDbLine
 10
2555.520595230402
 20
20038.47399557707
 30
0.191617
 11
2555.520595230402
 21
19842.47399557707
 31
0.191617
  0
LINE
  5
AF509
330
AF4F7
100
AcDbEntity
  8
Bevestigingsmiddelen
100
AcDbLine
 10
2550.520595230402
 20
20029.47399557707
 30
0.191617
 11
2550.520595230402
 21
20022.47399557707
 31
0.191617
  0
LINE
  5
AF50A
330
AF4F7
100
AcDbEntity
  8
Bevestigingsmiddelen
100
AcDbLine
 10
2560.520595230402
 20
20029.47399557707
 30
0.191617
 11
2560.520595230402
 21
20022.47399557707
 31
0.191617
  0
ARC
  5
B0EFB
330
AF4F7
100
AcDbEntity
  8
Bevestigingsmiddelen
  6
HIDDEN
100
AcDbCircle
 10
2544.020595230402
 20
19838.97399557707
 30
0.191617
 40
14.99999999999999
100
AcDbArc
 50
270.0
 51
0.0
  0
LWPOLYLINE
  5
B0EFC
330
AF4F7
100
AcDbEntity
  8
Bevestigingsmiddelen
  6
HIDDEN
100
AcDbPolyline
 90
        2
 70
     0
 43
0.0
 38
0.191617
 10
2525.725461399523
 20
19830.97399557707
 10
2525.725461399523
 20
19823.97399557707
1001
PE_URL
1000

  0
ARC
  5
B0EFD
330
AF4F7
100
AcDbEntity
  8
Hulplijn
  6
HIDDEN
100
AcDbCircle
 10
2540.520595230403
 20
19842.47399557707
 30
0.191617
 40
14.99999999999999
100
AcDbArc
 50
270.0
 51
0.0
  0
LINE
  5
B0EFE
330
AF4F7
100
AcDbEntity
  8
Bevestigingsmiddelen
  6
HIDDEN
100
AcDbLine
 10
2544.020595230402
 20
19823.97399557707
 30
0.191617
 11
2525.725461399523
 21
19823.97399557707
 31
0.191617
  0
LINE
  5
B0EFF
330
AF4F7
100
AcDbEntity
  8
Hulplijn
  6
HIDDEN
100
AcDbLine
 10
2525.725461399523
 20
19827.47399557707
 30
0.191617
 11
2540.520595230403
 21
19827.47399557707
 31
0.191617
  0
ARC
  5
B0F00
330
AF4F7
100
AcDbEntity
  8
Bevestigingsmiddelen
  6
HIDDEN
100
AcDbCircle
 10
2537.020595230402
 20
19845.97399557707
 30
0.191617
 40
14.99999999999999
100
AcDbArc
 50
270.0
 51
0.0
  0
LINE
  5
B0F01
330
AF4F7
100
AcDbEntity
  8
Bevestigingsmiddelen
  6
HIDDEN
100
AcDbLine
 10
2537.020595230402
 20
19830.97399557707
 30
0.191617
 11
2525.725461399523
 21
19830.97399557707
 31
0.191617
  0
ENDBLK
  5
AF50C
330
AF4F7
100
AcDbEntity
  8
0
100
AcDbBlockEnd
  0
BLOCK
  5
1590C1
330
1590B7
100
AcDbEntity
  8
0
100
AcDbBlockBegin
  2
RenoGoot en RenoVogelvide V20.1 3D
 70
     0
 10
0.0
 20
0.0
 30
0.0
  3
RenoGoot en RenoVogelvide V20.1 3D
  1

  0
LWPOLYLINE
  5
1590B8
330
1590B7
100
AcDbEntity
  8
0
370
     5
100
AcDbPolyline
 90
       10
 70
     1
 43
0.0
 10
182156.0852162497
 20
135468.8002732773
 10
182204.7441273153
 20
135431.1609834174
 10
182300.7687097165
 20
135474.2236584614
 10
182304.9563935949
 20
135511.7654440526
 10
182306.8623777702
 20
135513.1516143619
 10
182275.8587646079
 20
135562.5425817977
 10
182231.5081745244
 20
135556.4061987805
 10
182227.686879883
 20
135551.7174358851
 10
182172.7317914476
 20
135543.563527114
 10
182152.9503262792
 20
135507.8514976002
  0
LWPOLYLINE
  5
1590B9
330
1590B7
100
AcDbEntity
  8
0
370
     5
100
AcDbPolyline
 90
        3
 70
     0
 43
0.0
 10
182152.9503262792
 20
135507.8514976002
 10
182204.0234826852
 20
135479.0380487946
 10
182304.9563935949
 20
135511.7654440526
  0
LWPOLYLINE
  5
1590BA
330
1590B7
100
AcDbEntity
  8
0
370
     5
100
AcDbPolyline
 90
        5
 70
     0
 43
0.0
 10
182306.8623777702
 20
135513.1516143619
 10
182263.8241472161
 20
135499.2975331378
 10
182261.9960858291
 20
135497.8356072929
 10
182231.2842065772
 20
135552.1704288899
 10
182227.686879883
 20
135551.7174358851
  0
LWPOLYLINE
  5
1590BB
330
1590B7
100
AcDbEntity
  8
0
370
     5
100
AcDbPolyline
 90
        2
 70
     0
 43
0.0
 10
182231.5081745244
 20
135556.4061987805
 10
182263.8241472161
 20
135499.2975331378
  0
LWPOLYLINE
  5
1590BC
330
1590B7
100
AcDbEntity
  8
0
370
     5
100
AcDbPolyline
 90
        3
 70
     0
 43
0.0
 10
182172.7317914476
 20
135543.563527114
 10
182204.0234826852
 20
135479.0380487946
 10
182204.7441273153
 20
135431.1609834174
  0
LWPOLYLINE
  5
1590BD
330
1590B7
100
AcDbEntity
  8
0
370
     5
100
AcDbPolyline
 90
        4
 70
     0
 43
0.0
 10
182211.757780881
 20
135434.3062893049
 10
182211.6243891707
 20
135467.8854340721
 10
182225.3383694553
 20
135472.8983064011
 10
182224.9643481982
 20
135440.2288364548
  0
LWPOLYLINE
  5
1590BE
330
1590B7
100
AcDbEntity
  8
0
370
     5
100
AcDbPolyline
 90
        4
 70
     1
 43
0.0
 10
182231.9260786698
 20
135475.2032363832
 10
182252.9262784498
 20
135482.8328053681
 10
182252.2841860105
 20
135468.3290702682
 10
182231.6616876653
 20
135459.981868557
  0
LWPOLYLINE
  5
1590BF
330
1590B7
100
AcDbEntity
  8
0
370
     5
100
AcDbPolyline
 90
        4
 70
     0
 43
0.0
 10
182264.6965640998
 20
135458.0469353141
 10
182266.5569720271
 20
135487.7166811489
 10
182276.6938742173
 20
135491.4054644427
 10
182274.5914601838
 20
135462.4843479433
  0
LWPOLYLINE
  5
1590C0
330
1590B7
100
AcDbEntity
  8
0
370
     5
100
AcDbPolyline
 90
        4
 70
     1
 43
0.0
 10
182281.5634554743
 20
135493.1312386588
 10
182297.4873479694
 20
135498.8723004692
 10
182296.1578389185
 20
135486.0606677976
 10
182280.5250598044
 20
135479.633039204
  0
ENDBLK
  5
1590C2
330
1590B7
100
AcDbEntity
  8
0
100
AcDbBlockEnd
  0
BLOCK
  5
1818D0
330
18189D
100
AcDbEntity
  8
0
100
AcDbBlockBegin
  2
mus nest
 70
     0
 10
0.0
 20
0.0
 30
0.0
  3
mus nest
  1

  0
ARC
  5
198FDD
330
18189D
100
AcDbEntity
  8
Arcering
100
AcDbCircle
 10
178511.2193803481
 20
145594.4404918834
 30
0.0
 40
349.9907038804134
100
AcDbArc
 50
175.1534993143186
 51
286.5857015717141
  0
ARC
  5
198FDE
330
18189D
100
AcDbEntity
  8
Arcering
100
AcDbCircle
 10
178636.3871281714
 20
146082.9579046845
 30
0.0
 40
921.9958578208681
100
AcDbArc
 50
222.7827913769695
 51
287.9385392984124
  0
ARC
  5
198FDF
330
18189D
100
AcDbEntity
  8
Arcering
100
AcDbCircle
 10
178891.0064022735
 20
145760.3433908208
 30
0.0
 40
516.6128307497699
100
AcDbArc
 50
269.0385795771593
 51
357.2477827326959
  0
ARC
  5
198FE0
330
18189D
100
AcDbEntity
  8
Arcering
100
AcDbCircle
 10
179048.2466013101
 20
145730.8932016568
 30
0.0
 40
197.3166214353295
100
AcDbArc
 50
293.9054973542238
 51
91.07067418366993
  0
ARC
  5
198FE1
330
18189D
100
AcDbEntity
  8
Arcering
100
AcDbCircle
 10
178707.1354736392
 20
145483.3029072088
 30
0.0
 40
644.2895135421568
100
AcDbArc
 50
65.0752250164308
 51
166.227831913675
  0
ARC
  5
198FE2
330
18189D
100
AcDbEntity
  8
Arcering
100
AcDbCircle
 10
178330.2593294691
 20
145559.5417831604
 30
0.0
 40
372.3872896373623
100
AcDbArc
 50
81.85791819956538
 51
213.7238402027493
  0
ARC
  5
198FE3
330
18189D
100
AcDbEntity
  8
Arcering
100
AcDbCircle
 10
178461.9462591887
 20
145486.6578977032
 30
0.0
 40
601.3447960712168
100
AcDbArc
 50
136.8715711950504
 51
217.9233043999469
  0
ARC
  5
198FE4
330
18189D
100
AcDbEntity
  8
Arcering
100
AcDbCircle
 10
178408.7301237345
 20
145436.2279929304
 30
0.0
 40
485.3884242959972
100
AcDbArc
 50
196.9773677244915
 51
226.2825135379314
  0
ARC
  5
198FE5
330
18189D
100
AcDbEntity
  8
Arcering
100
AcDbCircle
 10
178693.0304708916
 20
145648.1390065495
 30
0.0
 40
724.1963349151302
100
AcDbArc
 50
228.7416701896062
 51
244.9989052790198
  0
ARC
  5
198FE6
330
18189D
100
AcDbEntity
  8
Arcering
100
AcDbCircle
 10
178959.138708212
 20
145500.4205718366
 30
0.0
 40
531.9898754813532
100
AcDbArc
 50
223.6953016299199
 51
322.1542376615419
  0
ARC
  5
198FE7
330
18189D
100
AcDbEntity
  8
Arcering
100
AcDbCircle
 10
178539.4977578042
 20
145892.0302277659
 30
0.0
 40
956.0834181699762
100
AcDbArc
 50
276.2872797788432
 51
343.8485453646272
  0
ARC
  5
198FE8
330
18189D
100
AcDbEntity
  8
Arcering
100
AcDbCircle
 10
178672.0447838925
 20
145978.5500859323
 30
0.0
 40
922.2683350285659
100
AcDbArc
 50
232.6024441068117
 51
291.2737155302952
  0
ARC
  5
198FE9
330
18189D
100
AcDbEntity
  8
Arcering
100
AcDbCircle
 10
178921.3946675134
 20
145643.9157523066
 30
0.0
 40
298.2710308183541
100
AcDbArc
 50
16.39230300496798
 51
98.09288710144059
  0
ARC
  5
198FEA
330
18189D
100
AcDbEntity
  8
Arcering
100
AcDbCircle
 10
178851.4389439899
 20
145566.4169803361
 30
0.0
 40
289.2119857715816
100
AcDbArc
 50
5.928039568731989
 51
85.73259140378649
  0
ARC
  5
198FEB
330
18189D
100
AcDbEntity
  8
Arcering
100
AcDbCircle
 10
178849.1309565334
 20
145559.1960030692
 30
0.0
 40
201.5913715189458
100
AcDbArc
 50
288.6253777881103
 51
65.95878724015299
  0
ARC
  5
198FEC
330
18189D
100
AcDbEntity
  8
Arcering
100
AcDbCircle
 10
178644.9784943287
 20
145814.6209564973
 30
0.0
 40
573.9665059815145
100
AcDbArc
 50
243.777251234939
 51
310.1286637014076
  0
LWPOLYLINE
  5
198FED
330
18189D
100
AcDbEntity
  8
Arcering
 62
     6
100
AcDbPolyline
 90
       29
 70
     0
 43
0.0
 10
178385.4094278363
 20
145631.8074152591
 10
178407.83327114
 20
145665.0968307573
 10
178429.0959716581
 20
145699.9676596075
 10
178443.4416499138
 20
145753.5363757247
 10
178450.8835950952
 20
145796.061776761
 10
178459.3886753027
 20
145796.061776761
 10
178488.6248885151
 20
145759.9151858799
 10
178524.2399118827
 20
145706.2268670723
 10
178551.8814225557
 20
145691.3429767098
 10
178585.3701758718
 20
145673.2696812693
 10
178609.8222814675
 20
145639.2493604403
 10
178631.0849819858
 20
145597.7870944291
 10
178637.9953596545
 20
145564.8299086271
 10
178634.2743870637
 20
145519.1151025137
 10
178616.2010916231
 20
145510.0784547934
 10
178604.5066063383
 20
145520.7098050527
 10
178587.496445924
 20
145551.0091532897
 10
178577.9282306905
 20
145560.0458010109
 10
178552.412990069
 20
145535.5936954152
 10
178505.1034814163
 20
145503.6996446382
 10
178473.2094306396
 20
145490.9420243269
 10
178430.6840296036
 20
145488.8157542758
 10
178398.7899788262
 20
145492.536726865
 10
178391.3480336447
 20
145501.5733745861
 10
178381.7798184117
 20
145518.0519674867
 10
178380.1851158731
 20
145548.3513157256
 10
178384.437655977
 20
145583.9663390927
 10
178375.9325757699
 20
145611.6078497665
 10
178385.4094278363
 20
145631.8074152591
  0
LWPOLYLINE
  5
198FEE
330
18189D
100
AcDbEntity
  8
Arcering
 62
     6
100
AcDbPolyline
 90
       13
 70
     0
 43
0.0
 10
178375.9325757699
 20
145611.6078497665
 10
178372.7265592066
 20
145515.0826645829
 10
178366.4972524147
 20
145462.1335568484
 10
178378.9558659994
 20
145419.5666270992
 10
178424.637449143
 20
145372.8468261575
 10
178455.7839831053
 20
145342.738509994
 10
178496.2744772555
 20
145328.2034608107
 10
178556.4911095823
 20
145337.547421
 10
178600.0962571288
 20
145367.6557371635
 10
178634.3574444875
 20
145420.6048448989
 10
178658.236453858
 20
145471.4775170367
 10
178650.968929267
 20
145501.5858331993
 10
178636.1348733588
 20
145541.9725055694
  0
LWPOLYLINE
  5
198FEF
330
18189D
100
AcDbEntity
  8
Arcering
 62
     6
100
AcDbPolyline
 90
        7
 70
     0
 43
0.0
 10
178404.9113109673
 20
145419.5666271001
 10
178408.0259643642
 20
145452.7895966591
 10
178430.8667559358
 20
145465.2482102439
 10
178443.3253695206
 20
145460.0571212508
 10
178435.0196271306
 20
145440.3309830744
 10
178419.4463601496
 20
145417.4901915025
 10
178404.9113109673
 20
145419.5666271001
  0
LWPOLYLINE
  5
198FF0
330
18189D
100
AcDbEntity
  8
Arcering
 62
     6
100
AcDbPolyline
 90
        5
 70
     0
 43
0.0
 10
178651.5347464769
 20
145499.2417333294
 10
178630.1288872144
 20
145503.5477014631
 10
178642.886507526
 20
145475.055682769
 10
178649.6905716918
 20
145467.8263645926
 10
178655.2891431171
 20
145465.1984637193
  0
LWPOLYLINE
  5
198FF1
330
18189D
100
AcDbEntity
  8
Arcering
 62
     6
100
AcDbPolyline
 90
        6
 70
     0
 43
0.0
 10
178366.4972524147
 20
145462.1335568484
 10
178349.5858216465
 20
145420.9414602537
 10
178341.2800792565
 20
145378.5821740655
 10
178366.197306426
 20
145334.5617393991
 10
178369.5196033821
 20
145302.9999183174
 10
178368.6890291432
 20
145283.0661365818
  0
LWPOLYLINE
  5
198FF2
330
18189D
100
AcDbEntity
  8
Arcering
 62
     6
100
AcDbPolyline
 90
        6
 70
     0
 43
0.0
 10
178656.6635260759
 20
145477.9939321344
 10
178685.9683884354
 20
145451.6727070957
 10
178708.3938928885
 20
145429.2472026432
 10
178740.7862882085
 20
145373.5987286307
 10
178751.583753315
 20
145344.5286302669
 10
178752.4143275539
 20
145319.6114030974
  0
LWPOLYLINE
  5
198FF3
330
18189D
100
AcDbEntity
  8
Arcering
 62
     6
100
AcDbPolyline
 90
        3
 70
     0
 43
0.0
 10
178616.2001523604
 20
145363.6318377629
 10
178651.0842703981
 20
145310.4750864683
 10
178670.1874778944
 20
145300.5081956004
  0
LWPOLYLINE
  5
198FF4
330
18189D
100
AcDbEntity
  8
Arcering
 62
     6
100
AcDbPolyline
 90
        3
 70
     0
 43
0.0
 10
178576.3325888892
 20
145329.5782939642
 10
178594.6052221467
 20
145294.6941759269
 10
178617.8613008386
 20
145284.7272850592
  0
LWPOLYLINE
  5
198FF5
330
18189D
100
AcDbEntity
  8
Arcering
 62
     6
100
AcDbPolyline
 90
        7
 70
     0
 43
0.0
 10
178461.5965444069
 20
145750.9787318557
 10
178428.3735748473
 20
145633.0371899195
 10
178406.7786446337
 20
145605.628240033
 10
178420.0678324571
 20
145549.9797660205
 10
178470.7328610357
 20
145514.2650737446
 10
178503.955830595
 20
145519.2485191775
 10
178546.6180118092
 20
145531.6869684979
  0
LWPOLYLINE
  5
198FF6
330
18189D
100
AcDbEntity
  8
Arcering
 62
     6
100
AcDbPolyline
 90
        8
 70
     0
 43
0.0
 10
178461.5965444069
 20
145750.9787318557
 10
178525.5507608091
 20
145685.3633669754
 10
178560.4348788464
 20
145652.9709716551
 10
178587.8438287328
 20
145640.5123580694
 10
178606.1164619897
 20
145609.7811112273
 10
178620.2362240534
 20
145568.2523992788
 10
178623.558521009
 20
145539.1823009141
 10
178601.1870014167
 20
145526.6228513187
  0
LWPOLYLINE
  5
198FF7
330
18189D
100
AcDbEntity
  8
Arcering
 62
     6
100
AcDbPolyline
 90
       37
 70
     0
 43
0.0
 10
178633.3050256569
 20
145975.199669797
 10
178648.5708485374
 20
146005.6491687614
 10
178675.1492241854
 20
146034.8853819743
 10
178694.4185465292
 20
146056.8125418825
 10
178704.3854373975
 20
146090.6999708339
 10
178721.6613815681
 20
146113.2915901337
 10
178730.299353654
 20
146139.8699657815
 10
178743.5885414774
 20
146153.1591536049
 10
178755.5488105188
 20
146147.8434784757
 10
178762.1934044307
 20
146134.5542906523
 10
178772.160295299
 20
146111.9626713516
 10
178783.4561049493
 20
146084.0553769218
 10
178793.4229958162
 20
146062.7926764032
 10
178808.0411024228
 20
146040.2010571025
 10
178833.2905592884
 20
146024.254031715
 10
178848.5731252853
 20
146004.9847093699
 10
178861.1978537179
 20
145980.3997118967
 10
178873.8225821506
 20
145957.1436332045
 10
178880.7371661595
 20
145934.9365408402
 10
178881.1316354538
 20
145920.5983666889
 10
178875.1515009329
 20
145884.0531001743
 10
178853.888800415
 20
145880.7308032177
 10
178833.9550186791
 20
145881.3952626092
 10
178820.0013714647
 20
145883.3886407828
 10
178802.0609679022
 20
145876.07958748
 10
178795.4163739902
 20
145863.4548590472
 10
178774.1536734726
 20
145862.7903996557
 10
178762.1934044305
 20
145868.1060747858
 10
178733.6216506097
 20
145868.1060747849
 10
178709.7011125267
 20
145866.7771560037
 10
178693.7540871382
 20
145862.1259402651
 10
178674.4847647939
 20
145861.4614808736
 10
178646.5774703643
 20
145871.4283717414
 10
178631.2949043668
 20
145888.704315912
 10
178621.3280134988
 20
145907.973638257
 10
178619.9125523635
 20
145942.8463281794
 10
178633.3050256569
 20
145975.199669797
  0
LWPOLYLINE
  5
198FF8
330
18189D
100
AcDbEntity
  8
Arcering
 62
     6
100
AcDbPolyline
 90
        7
 70
     0
 43
0.0
 10
178626.3114589329
 20
145898.3389770854
 10
178619.8641264024
 20
145858.4817957915
 10
178627.3392945535
 20
145830.2422716655
 10
178646.4425020502
 20
145807.8167672139
 10
178671.3597292199
 20
145787.0524112387
 10
178678.8348973705
 20
145763.7963325465
 10
178681.1605609024
 20
145736.1634980896
  0
LWPOLYLINE
  5
198FF9
330
18189D
100
AcDbEntity
  8
Arcering
 62
     6
100
AcDbPolyline
 90
       23
 70
     0
 43
0.0
 10
178875.1515009329
 20
145884.0531001743
 10
178865.7141011425
 20
145856.8206473132
 10
178849.1026163632
 20
145823.5976777542
 10
178825.8465376706
 20
145802.8333217799
 10
178801.7598847402
 20
145764.6269067861
 10
178799.2681620235
 20
145724.7593433149
 10
178800.9293105018
 20
145676.5860374533
 10
178812.5573498476
 20
145655.821681479
 10
178818.3713695204
 20
145649.1770875668
 10
178829.1688346274
 20
145661.6357011515
 10
178843.2885966892
 20
145686.552928321
 10
178851.5943390795
 20
145721.4370463583
 10
178861.5612299475
 20
145767.9492037426
 10
178869.8669723373
 20
145792.0358566726
 10
178884.8173086392
 20
145788.713559716
 10
178898.9370707017
 20
145757.1517386353
 10
178912.2262585254
 20
145729.7427887488
 10
178928.8377433051
 20
145704.8255615793
 10
178946.279802324
 20
145683.2306313654
 10
178959.5689901479
 20
145674.9248889759
 10
178984.1222644411
 20
145646.7133512329
 10
178991.3897890316
 20
145622.8343418622
 10
179015.2687984025
 20
145585.458501108
  0
LWPOLYLINE
  5
198FFA
330
18189D
100
AcDbEntity
  8
Arcering
 62
     6
100
AcDbPolyline
 90
       14
 70
     0
 43
0.0
 10
178772.3258334997
 20
145716.2739437483
 10
178776.4787046947
 20
145686.1656275838
 10
178799.319496267
 20
145640.4840444401
 10
178819.0456344425
 20
145617.6432528682
 10
178849.1539506062
 20
145608.2992926789
 10
178870.9565243795
 20
145633.2165198493
 10
178883.4151379643
 20
145675.7834495977
 10
178909.3705829319
 20
145652.9426580248
 10
178911.4470185295
 20
145622.8343418622
 10
178931.1731567059
 20
145582.3438477106
 10
178948.8228592838
 20
145556.3884027433
 10
178977.8929576482
 20
145555.3501849444
 10
179000.7337492204
 20
145542.8915713597
 10
179015.2687984025
 20
145530.432957775
  0
LWPOLYLINE
  5
198FFB
330
18189D
100
AcDbEntity
  8
Arcering
 62
     6
100
AcDbPolyline
 90
        6
 70
     0
 43
0.0
 10
178358.8356109688
 20
145524.2455589035
 10
178324.5744236102
 20
145478.5639757588
 10
178304.8482854345
 20
145442.2263528034
 10
178306.9247210321
 20
145405.888729848
 10
178286.1603650571
 20
145370.5893246904
 10
178271.6253158757
 20
145347.7485331185
  0
LWPOLYLINE
  5
198FFC
330
18189D
100
AcDbEntity
  8
Arcering
 62
     6
100
AcDbPolyline
 90
        3
 70
     0
 43
0.0
 10
178636.8908983015
 20
145819.0295194397
 10
178605.1291917199
 20
145799.4937106799
 10
178590.5422417861
 20
145779.6056800252
  0
LWPOLYLINE
  5
198FFD
330
18189D
100
AcDbEntity
  8
Arcering
 62
     6
100
AcDbPolyline
 90
       38
 70
     0
 43
0.0
 10
178744.5193542873
 20
146136.7392858174
 10
178732.2765819135
 20
146106.5929633984
 10
178720.0505291156
 20
146081.6092902897
 10
178701.4456661627
 20
146043.3364293575
 10
178667.9569128468
 20
146006.1267034505
 10
178646.9118373098
 20
145979.9679535152
 10
178640.3154021727
 20
145967.8538425183
 10
178633.4050245052
 20
145939.6807643324
 10
178640.3154021732
 20
145917.8864963017
 10
178645.6310773024
 20
145894.4975257311
 10
178659.4518326393
 20
145889.1818506019
 10
178687.6249108258
 20
145888.118715575
 10
178718.455826577
 20
145887.0555805499
 10
178741.313229634
 20
145884.9293104987
 10
178766.2969027422
 20
145878.0189328296
 10
178779.0545230529
 20
145876.9557978036
 10
178790.7490083382
 20
145875.8926627785
 10
178800.8487910843
 20
145887.0555805499
 10
178814.6695464209
 20
145892.902823193
 10
178840.1847870424
 20
145896.0922282701
 10
178849.7530022757
 20
145899.2816333482
 10
178859.3212175087
 20
145901.4079033993
 10
178868.889432742
 20
145908.3182810675
 10
178873.1419728459
 20
145917.8864963008
 10
178871.4817968924
 20
145938.4376191106
 10
178860.3843525348
 20
145956.159357233
 10
178854.0055423793
 20
145972.1063826214
 10
178843.905759633
 20
145990.179678062
 10
178823.1746266288
 20
146007.7214059895
 10
178807.2276012399
 20
146019.9474587878
 10
178793.406845903
 20
146034.2997816373
 10
178784.3701981825
 20
146049.7152395127
 10
178779.0545230533
 20
146065.1306973882
 10
178772.6757128976
 20
146078.4198852126
 10
178765.2337677164
 20
146098.6194507042
 10
178754.0708499446
 20
146122.5399887869
 10
178748.3076343681
 20
146137.1418627482
 10
178745.1960317059
 20
146138.4055208014
  0
LWPOLYLINE
  5
198FFE
330
18189D
100
AcDbEntity
  8
Arcering
 62
     6
100
AcDbPolyline
 90
        4
 70
     0
 43
0.0
 10
178737.7999006032
 20
146025.1385477818
 10
178733.1486848644
 20
145979.290849789
 10
178728.4537906695
 20
145961.5798918195
 10
178729.8263879088
 20
145950.7190959686
  0
LWPOLYLINE
  5
198FFF
330
18189D
100
AcDbEntity
  8
Arcering
 62
     6
100
AcDbPolyline
 90
        4
 70
     0
 43
0.0
 10
178751.0890884264
 20
146024.4740883894
 10
178750.4246290354
 20
145985.9354437012
 10
178755.740304165
 20
145969.9884183127
 10
178758.3981417294
 20
145948.7257177941
  0
LWPOLYLINE
  5
199000
330
18189D
100
AcDbEntity
  8
Arcering
 62
     6
100
AcDbPolyline
 90
        9
 70
     0
 43
0.0
 10
178934.0645536962
 20
145578.0917933136
 10
178931.1630178599
 20
145533.8325532898
 10
178938.4720711634
 20
145501.9385025129
 10
178934.4853148165
 20
145468.0510735624
 10
178930.4985584693
 20
145442.8016166976
 10
178931.1630178597
 20
145415.5587816592
 10
178923.1895051655
 20
145398.2828374877
 10
178921.1961269921
 20
145384.3291902728
 10
178919.2027488183
 20
145371.0400024485
  0
ARC
  5
199001
330
18189D
100
AcDbEntity
  8
Arcering
100
AcDbCircle
 10
178387.5589293882
 20
145620.3779899059
 30
0.0
 40
366.5718877264064
100
AcDbArc
 50
168.9133783556187
 51
255.7815086432661
  0
ARC
  5
199002
330
18189D
100
AcDbEntity
  8
Arcering
100
AcDbCircle
 10
178383.0710953263
 20
145416.224826491
 30
0.0
 40
370.8860702414016
100
AcDbArc
 50
134.0582078608703
 51
260.8170672090669
  0
ARC
  5
199003
330
18189D
100
AcDbEntity
  8
Arcering
100
AcDbCircle
 10
178345.926758975
 20
145308.0258596092
 30
0.0
 40
456.6823351048108
100
AcDbArc
 50
154.2624227630724
 51
203.0140062587887
  0
ARC
  5
199004
330
18189D
100
AcDbEntity
  8
Arcering
100
AcDbCircle
 10
178617.2251009606
 20
145533.4028795939
 30
0.0
 40
679.9610502674474
100
AcDbArc
 50
284.0560322175789
 51
340.2437827665186
  0
ARC
  5
199005
330
18189D
100
AcDbEntity
  8
Arcering
100
AcDbCircle
 10
179058.7548558216
 20
145690.1442802309
 30
0.0
 40
349.6634395743028
100
AcDbArc
 50
279.5771496323961
 51
69.21577363235707
  0
ARC
  5
199006
330
18189D
100
AcDbEntity
  8
Arcering
100
AcDbCircle
 10
178960.1672186358
 20
145710.6600924535
 30
0.0
 40
308.7908759477723
100
AcDbArc
 50
307.9067376114816
 51
110.6395913631482
  0
ARC
  5
199007
330
18189D
100
AcDbEntity
  8
Arcering
100
AcDbCircle
 10
178857.5684822248
 20
145622.7479885644
 30
0.0
 40
312.9085015141955
100
AcDbArc
 50
269.2221034303333
 51
59.67828823026104
  0
ARC
  5
199008
330
18189D
100
AcDbEntity
  8
Arcering
100
AcDbCircle
 10
178788.1514024318
 20
145083.2154177145
 30
0.0
 40
1085.447110274228
100
AcDbArc
 50
64.44556435961747
 51
133.3613861304046
  0
ARC
  5
199009
330
18189D
100
AcDbEntity
  8
Arcering
100
AcDbCircle
 10
178999.1529103103
 20
145601.7719100546
 30
0.0
 40
502.0024636796083
100
AcDbArc
 50
299.4542028535894
 51
329.1202540534361
  0
ARC
  5
19900A
330
18189D
100
AcDbEntity
  8
Arcering
100
AcDbCircle
 10
178750.4542570172
 20
145343.3714926755
 30
0.0
 40
658.3351856669246
100
AcDbArc
 50
99.47398175513347
 51
152.3035632631959
  0
ARC
  5
19900B
330
18189D
100
AcDbEntity
  8
Arcering
100
AcDbCircle
 10
178750.4542570172
 20
145343.3714926755
 30
0.0
 40
658.3351856669246
100
AcDbArc
 50
68.53780850537347
 51
80.90613672813862
  0
ARC
  5
19900C
330
18189D
100
AcDbEntity
  8
Arcering
100
AcDbCircle
 10
178631.926829715
 20
145562.0337775554
 30
0.0
 40
386.7394905332867
100
AcDbArc
 50
91.42391918667454
 51
171.5147568935513
  0
ARC
  5
19900D
330
18189D
100
AcDbEntity
  8
Arcering
100
AcDbCircle
 10
178631.926829715
 20
145562.0337775554
 30
0.0
 40
386.7394905332867
100
AcDbArc
 50
42.72131594069033
 51
52.12702828650436
  0
ARC
  5
19900E
330
18189D
100
AcDbEntity
  8
Arcering
100
AcDbCircle
 10
177315.0860284688
 20
145469.4767370718
 30
0.0
 40
2053.998216786109
100
AcDbArc
 50
339.1617332831105
 51
347.8919053682702
  0
ARC
  5
19900F
330
18189D
100
AcDbEntity
  8
Arcering
100
AcDbCircle
 10
176932.2287188834
 20
145426.7450487921
 30
0.0
 40
2348.657822237992
100
AcDbArc
 50
343.3645033305632
 51
356.490489322234
  0
ARC
  5
199010
330
18189D
100
AcDbEntity
  8
Arcering
100
AcDbCircle
 10
180375.3137268645
 20
145639.6194860879
 30
0.0
 40
1914.648176707622
100
AcDbArc
 50
195.369735029183
 51
201.786748887702
  0
ARC
  5
199011
330
18189D
100
AcDbEntity
  8
Arcering
100
AcDbCircle
 10
178772.0821594838
 20
145989.5381848281
 30
0.0
 40
1198.881346049288
100
AcDbArc
 50
216.5852940854021
 51
226.1731136355182
  0
ARC
  5
199012
330
18189D
100
AcDbEntity
  8
Arcering
100
AcDbCircle
 10
178353.2329747672
 20
145701.5869819215
 30
0.0
 40
951.9399709735768
100
AcDbArc
 50
302.8925251504591
 51
4.468658225499988
  0
ARC
  5
199013
330
18189D
100
AcDbEntity
  8
Arcering
100
AcDbCircle
 10
178379.9077765862
 20
145833.7738650916
 30
0.0
 40
751.0135887855089
100
AcDbArc
 50
205.6493042124541
 51
249.4422152251695
  0
ARC
  5
199014
330
18189D
100
AcDbEntity
  8
Arcering
100
AcDbCircle
 10
178554.0817683891
 20
145165.7747980328
 30
0.0
 40
639.466138470759
100
AcDbArc
 50
323.7845466602808
 51
351.855467150494
  0
ARC
  5
199015
330
18189D
100
AcDbEntity
  8
Arcering
100
AcDbCircle
 10
177630.6957266291
 20
145177.3373399749
 30
0.0
 40
1445.331944594281
100
AcDbArc
 50
344.9089738628267
 51
1.218031265829384
  0
ARC
  5
199016
330
18189D
100
AcDbEntity
  8
Arcering
100
AcDbCircle
 10
178484.3810332813
 20
145648.4566619526
 30
0.0
 40
1090.583782232756
100
AcDbArc
 50
306.3333349307891
 51
318.9806060241622
  0
ARC
  5
199017
330
18189D
100
AcDbEntity
  8
Arcering
100
AcDbCircle
 10
178960.0461060274
 20
145195.2898615524
 30
0.0
 40
719.9944659557006
100
AcDbArc
 50
185.1551086398026
 51
193.2804146805559
  0
ARC
  5
199018
330
18189D
100
AcDbEntity
  8
Arcering
100
AcDbCircle
 10
179789.1525639524
 20
145237.3403265336
 30
0.0
 40
1081.512970504002
100
AcDbArc
 50
185.2833989696989
 51
199.4205375335386
  0
ARC
  5
199019
330
18189D
100
AcDbEntity
  8
Arcering
100
AcDbCircle
 10
178249.5073948852
 20
145285.3445182154
 30
0.0
 40
627.4499589505581
100
AcDbArc
 50
119.6902667669727
 51
144.8818621643818
  0
ARC
  5
19901A
330
18189D
100
AcDbEntity
  8
Arcering
100
AcDbCircle
 10
178078.985749281
 20
145330.3892304571
 30
0.0
 40
382.1234132437565
100
AcDbArc
 50
127.501214156161
 51
201.5975527076853
  0
ARC
  5
19901B
330
18189D
100
AcDbEntity
  8
Arcering
100
AcDbCircle
 10
178693.0304708916
 20
145648.1390065495
 30
0.0
 40
724.1963349151302
100
AcDbArc
 50
261.7683716689636
 51
295.4520323964991
  0
ARC
  5
19901C
330
18189D
100
AcDbEntity
  8
Arcering
100
AcDbCircle
 10
178408.7301237345
 20
145436.2279929304
 30
0.0
 40
485.3884242959972
100
AcDbArc
 50
280.4847634100595
 51
303.9153626376264
  0
ARC
  5
19901D
330
18189D
100
AcDbEntity
  8
Arcering
100
AcDbCircle
 10
178999.1529103103
 20
145601.7719100546
 30
0.0
 40
502.0024636796083
100
AcDbArc
 50
357.647022894351
 51
53.52659379169467
  0
LWPOLYLINE
  5
19901E
330
18189D
100
AcDbEntity
  8
Arcering
 62
     6
100
AcDbPolyline
 90
        4
 70
     0
 43
0.0
 10
178590.5422417861
 20
145779.6056800252
 10
178569.8963685057
 20
145738.7105256319
 10
178545.0934750172
 20
145708.6740080146
 10
178535.0228716261
 20
145700.4206579793
  0
ARC
  5
19901F
330
18189D
100
AcDbEntity
  8
Arcering
100
AcDbCircle
 10
178617.7225485975
 20
145404.892134089
 30
0.0
 40
635.0454635175532
100
AcDbArc
 50
91.00880473421325
 51
170.6530178268918
  0
ARC
  5
199020
330
18189D
100
AcDbEntity
  8
Arcering
100
AcDbCircle
 10
178512.2516107475
 20
145378.8783652438
 30
0.0
 40
622.2896642798495
100
AcDbArc
 50
86.34915814181576
 51
160.4484177874836
  0
ARC
  5
199021
330
18189D
100
AcDbEntity
  8
Arcering
100
AcDbCircle
 10
178826.5890327306
 20
145067.7787185628
 30
0.0
 40
846.7062946548713
100
AcDbArc
 50
110.0891342591562
 51
152.1720578281275
  0
LWPOLYLINE
  5
199022
330
18189D
100
AcDbEntity
  8
Arcering
 62
     6
100
AcDbPolyline
 90
        3
 70
     0
 43
0.0
 10
178819.1508456834
 20
145792.2125689713
 10
178837.2769976421
 20
145754.1262456486
 10
178851.5943390795
 20
145721.4370463583
1001
PE_URL
1000

  0
ENDBLK
  5
1818D1
330
18189D
100
AcDbEntity
  8
0
100
AcDbBlockEnd
  0
BLOCK
  5
181BD8
330
181BB7
100
AcDbEntity
  8
0
100
AcDbBlockBegin
  2
mus
 70
     0
 10
0.0
 20
0.0
 30
0.0
  3
mus
  1

  0
LWPOLYLINE
  5
198FB3
330
181BB7
100
AcDbEntity
  8
Arcering
 62
     6
100
AcDbPolyline
 90
      445
 70
     1
 43
0.0
 10
177085.1048424451
 20
144779.4241563457
 10
177090.8125051545
 20
144780.5200275858
 10
177092.0910216014
 20
144782.0725118428
 10
177094.3284253835
 20
144783.3510282897
 10
177096.3831839588
 20
144783.8989639098
 10
177098.6662490425
 20
144784.2185930215
 10
177101.5885723497
 20
144784.1729317198
 10
177103.8716374335
 20
144783.8989639098
 10
177106.3830090256
 20
144782.9857378763
 10
177109.3053323328
 20
144780.6113501892
 10
177110.9948004947
 20
144778.7848981222
 10
177112.9125751651
 20
144775.8169135133
 10
177114.0997690086
 20
144772.8945902061
 10
177115.2413015505
 20
144769.3330086755
 10
177115.5071359411
 20
144766.2001439601
 10
177115.9454844372
 20
144764.6293951826
 10
177116.6030071813
 20
144763.3143496943
 10
177117.6258203389
 20
144762.6568269502
 10
177120.1829550966
 20
144762.8664721197
 10
177122.4871485778
 20
144763.599624591
 10
177124.5369830384
 20
144764.6186971747
 10
177126.6644344061
 20
144765.9512766028
 10
177128.2543609304
 20
144766.6687982973
 10
177128.9849417572
 20
144767.9473147442
 10
177129.5328773773
 20
144769.4450054391
 10
177130.3730453281
 20
144771.0157542167
 10
177131.5054456097
 20
144772.111625457
 10
177132.7474330152
 20
144773.5727871105
 10
177133.1492524699
 20
144774.37642602
 10
177133.8067752141
 20
144774.7051873921
 10
177133.478013842
 20
144773.9380775239
 10
177133.587600966
 20
144773.2074966971
 10
177133.9528913794
 20
144772.6960901183
 10
177135.7396913548
 20
144773.851244131
 10
177137.7944499302
 20
144775.9973253097
 10
177139.4382567904
 20
144778.4173742985
 10
177141.4016927625
 20
144780.7004393822
 10
177143.2480681396
 20
144783.4425164847
 10
177144.4535265039
 20
144785.6707880064
 10
177145.220636372
 20
144787.460711032
 10
177145.4919786572
 20
144788.4516754317
 10
177145.8718806871
 20
144790.9648734758
 10
177145.9595503863
 20
144792.8643836255
 10
177145.9887736194
 20
144794.5008846775
 10
177146.3394524162
 20
144794.7638937752
 10
177146.5440150478
 20
144794.1794291137
 10
177146.8070241454
 20
144793.0981694901
 10
177147.3330423407
 20
144791.6077846034
 10
177147.3622655738
 20
144790.2635158821
 10
177147.3038191076
 20
144789.0361400931
 10
177147.1577029422
 20
144787.4580855072
 10
177147.04081001
 20
144786.7859511466
 10
177147.1284797092
 20
144786.2599329512
 10
177148.0343999344
 20
144786.7275046804
 10
177148.5604181297
 20
144787.6626481387
 10
177149.2033292573
 20
144788.8900239277
 10
177149.5832312872
 20
144790.2635158821
 10
177149.8754636179
 20
144791.4032219719
 10
177150.0800262495
 20
144792.3675886633
 10
177150.313812114
 20
144792.9812765578
 10
177150.5475979786
 20
144793.0397230239
 10
177150.9859464747
 20
144792.8936068585
 10
177151.3074020385
 20
144792.5721512948
 10
177151.2197323392
 20
144791.7246775357
 10
177151.3950717376
 20
144790.9356502427
 10
177151.51196467
 20
144789.5621582883
 10
177151.2489555723
 20
144788.4516754317
 10
177151.1612858731
 20
144787.4873087403
 10
177150.7521606101
 20
144786.7859511466
 10
177150.4891515125
 20
144786.2307097182
 10
177150.4014818132
 20
144785.5001288914
 10
177150.3722585802
 20
144785.0033339292
 10
177150.7297472608
 20
144784.7011814666
 10
177151.4030505507
 20
144784.8882101582
 10
177152.2446796632
 20
144785.5989191865
 10
177152.8431714765
 20
144786.6275769907
 10
177153.572583374
 20
144787.6375319256
 10
177154.2271837948
 20
144788.6848925989
 10
177154.7134583931
 20
144789.4517102347
 10
177155.1062186456
 20
144789.5265217114
 10
177155.5363846364
 20
144789.2646815431
 10
177155.8730362814
 20
144788.7035954681
 10
177156.0226592347
 20
144787.6188290565
 10
177155.9665506272
 20
144786.0851937849
 10
177155.7234133281
 20
144785.2248618032
 10
177155.4054645523
 20
144784.5328556441
 10
177154.8069727389
 20
144783.5603064475
 10
177154.3955096173
 20
144782.8870031575
 10
177154.2271837948
 20
144782.3446199517
 10
177153.7783149348
 20
144781.8957510917
 10
177153.8531264115
 20
144781.5590994467
 10
177154.9378928231
 20
144781.9144539608
 10
177155.3867616831
 20
144782.6251629892
 10
177156.7095732456
 20
144783.2801542707
 10
177157.9215191675
 20
144784.192854286
 10
177158.5798601622
 20
144784.82127069
 10
177159.3279749288
 20
144784.9409690526
 10
177159.7169946075
 20
144784.327514944
 10
177159.7169946075
 20
144782.891134592
 10
177159.4177487008
 20
144781.6492640794
 10
177158.3646125578
 20
144779.7992595706
 10
177158.0723802271
 20
144778.8933393453
 10
177157.9554872948
 20
144778.4549908493
 10
177158.1892731594
 20
144778.1335352854
 10
177159.0075236854
 20
144778.6011070146
 10
177160.3810156397
 20
144779.0979019768
 10
177161.0823732334
 20
144779.1855716761
 10
177161.725284361
 20
144778.6303302477
 10
177161.725284361
 20
144777.958195887
 10
177161.6376146618
 20
144776.9938291957
 10
177161.5207217295
 20
144776.4678110004
 10
177160.907033835
 20
144775.1527655121
 10
177160.088783309
 20
144774.6267473168
 10
177159.8842206775
 20
144774.1007291216
 10
177159.8842206775
 20
144773.9253897231
 10
177160.0595600759
 20
144773.5162644601
 10
177160.6148015043
 20
144773.5747109263
 10
177161.4622752634
 20
144773.5747109263
 10
177162.3974187217
 20
144773.1363624302
 10
177162.6604278193
 20
144772.7272371672
 10
177162.3001975777
 20
144772.0282768475
 10
177162.6654879912
 20
144771.2246379381
 10
177161.9714362057
 20
144770.4575280699
 10
177161.460029627
 20
144770.2018247805
 10
177161.2043263376
 20
144769.6538891604
 10
177160.9120940069
 20
144769.069424499
 10
177161.4235005856
 20
144768.4484307962
 10
177162.007965247
 20
144768.0100823001
 10
177162.6654879912
 20
144767.3890885973
 10
177162.9942493632
 20
144767.0968562666
 10
177163.17689457
 20
144765.8548688611
 10
177162.5924299085
 20
144765.635694613
 10
177162.3367266191
 20
144765.416520365
 10
177163.6517721074
 20
144765.635694613
 10
177169.7456050197
 20
144768.0143741949
 10
177172.2113153101
 20
144769.6581810552
 10
177175.6815742374
 20
144772.1695526473
 10
177178.4034158919
 20
144774.7180240471
 10
177180.7321422773
 20
144777.6860086559
 10
177182.741239551
 20
144780.2887028514
 10
177183.5631429811
 20
144781.6128805999
 10
177184.2024012046
 20
144781.7042032033
 10
177184.2937238079
 20
144780.4713480581
 10
177184.0654172995
 20
144779.0101864045
 10
177183.4261590761
 20
144777.6403473542
 10
177182.604255646
 20
144776.0422017956
 10
177181.7823522158
 20
144774.7636853487
 10
177180.5951583723
 20
144773.2112010918
 10
177179.1796580204
 20
144771.8870233432
 10
177178.4947384952
 20
144770.928136008
 10
177178.1294480818
 20
144770.2432164829
 10
177178.5860610986
 20
144769.7866034661
 10
177179.5906097354
 20
144770.0149099746
 10
177181.3714005007
 20
144770.3802003879
 10
177182.9238847576
 20
144771.4304103264
 10
177184.704675523
 20
144772.7089267734
 10
177185.9831919699
 20
144773.4851689018
 10
177187.4443536235
 20
144774.855007952
 10
177188.2205957519
 20
144775.8138952872
 10
177188.9511765787
 20
144776.7271213207
 10
177189.6360961038
 20
144776.7271213207
 10
177190.457999534
 20
144776.1791857006
 10
177189.8644026122
 20
144774.855007952
 10
177189.6817574055
 20
144773.7591367119
 10
177188.9055152771
 20
144772.4806202649
 10
177188.494563562
 20
144771.9326846448
 10
177187.3073697185
 20
144770.8368134047
 10
177185.9274258381
 20
144769.7065225075
 10
177184.0279156885
 20
144768.4499234854
 10
177182.9758792979
 20
144767.8070123579
 10
177182.3037449373
 20
144767.2809941626
 10
177181.8946196743
 20
144766.5504133358
 10
177181.6900570427
 20
144766.0243951405
 10
177182.1576287719
 20
144765.6152698775
 10
177183.414227794
 20
144765.7613860428
 10
177185.0215056129
 20
144766.1412880728
 10
177186.687229898
 20
144766.5504133358
 10
177188.8047955938
 20
144767.396819762
 10
177190.5114324052
 20
144768.1215559421
 10
177191.6336045552
 20
144768.776156363
 10
177192.9895625697
 20
144769.3606210244
 10
177193.7681923009
 20
144769.5232061613
 10
177194.3922777572
 20
144769.1735923327
 10
177194.5559278624
 20
144768.2618274609
 10
177193.9013274415
 20
144766.8123551005
 10
177192.849291051
 20
144765.8070758828
 10
177191.8673904197
 20
144765.1290968756
 10
177190.5233157591
 20
144763.8206437378
 10
177188.5361359102
 20
144762.4880643098
 10
177186.8996348581
 20
144761.7399495431
 10
177185.3800267384
 20
144761.272377814
 10
177184.5383976259
 20
144761.0385919494
 10
177184.2812331749
 20
144760.5476416338
 10
177185.2865123926
 20
144760.196962837
 10
177187.507478106
 20
144760.1034484911
 10
177189.2842506768
 20
144760.2203414234
 10
177191.6922450819
 20
144760.5710202202
 10
177193.1183388559
 20
144760.9216990171
 10
177193.7261821037
 20
144761.0619705358
 10
177194.8717328402
 20
144761.3658921598
 10
177195.839574174
 20
144761.2575236446
 10
177196.2944279521
 20
144760.7547905215
 10
177196.0789708993
 20
144759.9647813279
 10
177194.4730866632
 20
144757.9408695188
 10
177192.8658088443
 20
144757.0349492935
 10
177191.8429956867
 20
144756.421261399
 10
177190.6921691925
 20
144755.7495243422
 10
177188.8914491465
 20
144755.0769926777
 10
177188.0147521543
 20
144755.0185462116
 10
177188.1024218536
 20
144754.4925280163
 10
177189.2421279433
 20
144753.9080633549
 10
177189.9695805988
 20
144753.4426696141
 10
177191.2585310253
 20
144753.4697148588
 10
177192.719692679
 20
144753.4112683926
 10
177193.4794967388
 20
144753.2651522273
 10
177193.976291701
 20
144752.8560269643
 10
177193.9178452349
 20
144752.0669996713
 10
177193.8009523026
 20
144751.3656420776
 10
177190.9429293831
 20
144749.2878423813
 10
177189.4233212633
 20
144748.732600953
 10
177188.2150352439
 20
144748.5186844545
 10
177186.9977929184
 20
144748.2942524569
 10
177186.4133282569
 20
144748.0896898254
 10
177186.0918726931
 20
144748.0020201262
 10
177186.7932302869
 20
144747.2129928332
 10
177187.5267518824
 20
144746.7865970051
 10
177188.3128384066
 20
144746.3947423072
 10
177189.0358947652
 20
144745.2024841136
 10
177189.3064283311
 20
144744.0568836615
 10
177188.2584918252
 20
144743.3958521305
 10
177188.0277310699
 20
144742.8776437071
 10
177186.9101232192
 20
144742.2158199779
 10
177185.5950777309
 20
144741.7774714819
 10
177184.7476039718
 20
144741.5144623842
 10
177183.9293534458
 20
144741.5144623842
 10
177184.7395958371
 20
144740.5814857909
 10
177185.2154896224
 20
144739.7724837254
 10
177185.4200522539
 20
144739.188019064
 10
177185.040150224
 20
144738.4866614702
 10
177184.6018017279
 20
144737.9021968088
 10
177183.841997668
 20
144737.5222947789
 10
177182.9618497427
 20
144737.1356464153
 10
177182.4392824806
 20
144736.762490719
 10
177181.2411299247
 20
144736.0903563583
 10
177180.568995564
 20
144735.8857937268
 10
177179.8384147372
 20
144735.7104543284
 10
177179.3123965419
 20
144735.564338163
 10
177179.4000662411
 20
144734.3954088402
 10
177179.4585127073
 20
144733.8401674118
 10
177179.4000662411
 20
144733.1388098181
 10
177179.1955036096
 20
144732.7589077881
 10
177178.7863783466
 20
144732.2328895928
 10
177178.3188066175
 20
144731.7653178637
 10
177177.9681278206
 20
144731.5315319991
 10
177177.325216693
 20
144731.2100764353
 10
177175.7763853402
 20
144730.7717279392
 10
177175.0165812803
 20
144730.7717279392
 10
177173.7307590252
 20
144730.9178441046
 10
177173.4677499275
 20
144730.9762905708
 10
177173.2924105291
 20
144731.0347370369
 10
177173.5833688916
 20
144729.7017645827
 10
177173.5366117187
 20
144728.8601354703
 10
177173.0690399896
 20
144727.9483705984
 10
177172.3209252229
 20
144727.5976918016
 10
177171.455917524
 20
144727.1301200724
 10
177170.6142884115
 20
144727.0366057266
 10
177168.2530511793
 20
144726.802819862
 10
177167.4581792398
 20
144726.9898485537
 10
177166.6837863939
 20
144725.896945298
 10
177165.9988668688
 20
144724.8923966612
 10
177165.1769634387
 20
144724.4357836445
 10
177164.1267535002
 20
144724.3444610411
 10
177162.8938983549
 20
144724.2531384378
 10
177161.6610432097
 20
144724.2531384378
 10
177161.0217849863
 20
144724.2987997394
 10
177160.7934784779
 20
144723.9791706277
 10
177160.1998815561
 20
144723.2029284992
 10
177159.788929841
 20
144722.5636702758
 10
177157.3688808523
 20
144721.6047829406
 10
177156.3643322155
 20
144721.4677990356
 10
177154.1269284334
 20
144721.6504442423
 10
177152.1178311597
 20
144722.1983798624
 10
177151.6155568413
 20
144722.2897024657
 10
177151.8895246513
 20
144721.1481699239
 10
177151.2959277296
 20
144719.6870082703
 10
177150.9762986178
 20
144719.1847339519
 10
177149.1955078525
 20
144718.6367983318
 10
177147.8256688023
 20
144718.7281209351
 10
177146.3645071487
 20
144718.8651048401
 10
177143.3051999365
 20
144718.9564274435
 10
177143.3051999365
 20
144718.9564274435
 10
177142.7116030147
 20
144717.3582818849
 10
177142.3463126013
 20
144716.9929914715
 10
177140.0175862159
 20
144716.8103462648
 10
177137.9628276405
 20
144717.1756366782
 10
177136.8669564003
 20
144717.4039431866
 10
177135.5427786518
 20
144717.7692336
 10
177134.9619080342
 20
144715.6706776315
 10
177134.194798166
 20
144715.6341485902
 10
177133.1354559672
 20
144715.5610905075
 10
177131.7473523962
 20
144715.8898518796
 10
177130.5784230734
 20
144716.0724970862
 10
177129.7747841639
 20
144716.583903665
 10
177128.9346162131
 20
144716.8761359957
 10
177128.715441965
 20
144716.8761359957
 10
177128.3501515517
 20
144716.2916713343
 10
177128.0213901796
 20
144715.8167937969
 10
177127.5099836008
 20
144715.3784453008
 10
177126.1584090712
 20
144715.2688581768
 10
177125.5008863272
 20
144715.3053872181
 10
177124.1858408389
 20
144715.6706776315
 10
177123.8936085082
 20
144715.8533228382
 10
177122.8707953507
 20
144716.1820842103
 10
177122.5055049373
 20
144716.4377874996
 10
177121.5557498624
 20
144716.474316541
 10
177121.5557498624
 20
144715.4149743421
 10
177121.4461627384
 20
144714.9400968047
 10
177120.3868205396
 20
144714.4652192673
 10
177119.03524601
 20
144714.3921611846
 10
177117.6471424391
 20
144714.647864474
 10
177117.3914391497
 20
144715.3053872181
 10
177116.5878002402
 20
144716.474316541
 10
177115.9302774961
 20
144717.5701877812
 10
177115.6745742068
 20
144717.9720072359
 10
177115.0901095453
 20
144717.9720072359
 10
177111.4952521739
 20
144710.5978678221
 10
177110.0683364965
 20
144708.9426456364
 10
177108.9268039547
 20
144706.6595805527
 10
177106.2442024813
 20
144703.9769790793
 10
177104.7031335497
 20
144702.1505270123
 10
177103.6757542621
 20
144700.3240749453
 10
177102.8196048557
 20
144699.4108489118
 10
177099.5291150082
 20
144693.4519152699
 10
177097.1211948027
 20
144688.8144393185
 10
177093.9955778658
 20
144683.4471797078
 10
177091.5027143232
 20
144678.5584828877
 10
177090.2541631055
 20
144674.9020114645
 10
177088.0246073596
 20
144671.6914511905
 10
177086.6868739121
 20
144669.1051665253
 10
177085.6166871541
 20
144668.3025264568
 10
177084.6356826259
 20
144668.4808909165
 10
177084.0114070171
 20
144669.4618954446
 10
177083.030402489
 20
144669.7294421342
 10
177081.425122352
 20
144669.818624364
 10
177080.5333000536
 20
144670.7996288922
 10
177079.3739310658
 20
144671.5130867308
 10
177078.7496554569
 20
144672.3157267993
 10
177079.1955666061
 20
144674.1885536258
 10
177080.4441178238
 20
144676.3289271418
 10
177082.0999379209
 20
144678.3576372588
 10
177083.4763136382
 20
144681.4123142424
 10
177084.9296213301
 20
144684.0547539496
 10
177086.2105572977
 20
144685.9289925401
 10
177086.5085094525
 20
144686.8524302622
 10
177086.1517805332
 20
144688.9036215484
 10
177086.4193272227
 20
144690.2413549959
 10
177087.311149521
 20
144693.4519152699
 10
177088.5597007386
 20
144696.2165643947
 10
177089.8082519564
 20
144698.71366683
 10
177090.7892564845
 20
144701.3891337251
 10
177091.4135320933
 20
144703.2619605516
 10
177092.3945366215
 20
144705.669880757
 10
177092.5729010812
 20
144706.6508852852
 10
177092.5729010812
 20
144709.4155344101
 10
177092.3053543917
 20
144710.3073567084
 10
177091.9486254723
 20
144712.0910013051
 10
177090.7443943392
 20
144713.3497276579
 10
177089.7398457024
 20
144716.7743252835
 10
177088.9179422723
 20
144720.3815681158
 10
177088.7809583673
 20
144722.6646331995
 10
177088.3700066521
 20
144724.3084400598
 10
177087.3968501602
 20
144725.7924323642
 10
177086.3923015234
 20
144727.6645457329
 10
177085.7987046016
 20
144728.9430621798
 10
177085.1594463782
 20
144729.0800460848
 10
177085.0681237748
 20
144728.3038039564
 10
177084.9311398698
 20
144726.9339649061
 10
177084.611510758
 20
144725.1075128391
 10
177084.6571720597
 20
144724.1029642023
 10
177084.611510758
 20
144722.9157703588
 10
177083.7439460262
 20
144721.9112217219
 10
177082.9220425961
 20
144721.6372539118
 10
177082.5567521827
 20
144721.6829152135
 10
177083.1046878028
 20
144722.3678347386
 10
177083.7439460262
 20
144723.4180446772
 10
177083.9265912329
 20
144724.3312707107
 10
177083.6069621212
 20
144724.7878837274
 10
177083.2416717078
 20
144724.7878837274
 10
177082.511090881
 20
144724.7422224257
 10
177082.4197682777
 20
144725.5641258559
 10
177082.8763812944
 20
144727.1166101128
 10
177083.1503491045
 20
144727.938513543
 10
177083.3329943112
 20
144728.6234330681
 10
177083.3786556129
 20
144729.4909977999
 10
177083.6069621212
 20
144730.7238529451
 10
177083.7439460262
 20
144731.6827402803
 10
177083.1960104062
 20
144732.1393532971
 10
177082.6024134844
 20
144731.9110467887
 10
177081.7348487526
 20
144731.3631111686
 10
177081.0955905291
 20
144730.8608368502
 10
177080.5933162107
 20
144729.9932721183
 10
177080.547654909
 20
144729.6279817049
 10
177080.1823644956
 20
144728.9430621798
 10
177079.5431062722
 20
144728.9430621798
 10
177079.2691384621
 20
144728.4407878614
 10
177079.3604610654
 20
144727.7558683363
 10
177079.1778158588
 20
144727.2535940178
 10
177078.6755415403
 20
144728.212481353
 10
177078.6298802387
 20
144728.9887234815
 10
177078.2645898252
 20
144729.0800460848
 10
177077.8992994119
 20
144728.8974008781
 10
177077.5340089985
 20
144728.7604169731
 10
177077.3970250935
 20
144728.3951265597
 10
177077.2600411884
 20
144727.9841748447
 10
177077.1687185851
 20
144727.4819005262
 10
177076.9404120767
 20
144726.7969810011
 10
177076.4381377583
 20
144727.2535940178
 10
177076.5751216633
 20
144728.6690943698
 10
177077.1230572834
 20
144730.0845947217
 10
177077.5340089985
 20
144731.1348046602
 10
177078.8125254454
 20
144732.2763372021
 10
177080.4563323057
 20
144733.7831601573
 10
177081.9631552609
 20
144734.6963861908
 10
177082.7393973894
 20
144735.3356444143
 10
177084.0179138363
 20
144734.9246926992
 10
177084.7484946631
 20
144733.8744827607
 10
177086.2096563167
 20
144732.8242728222
 10
177086.9402371435
 20
144731.865385487
 10
177087.6708179702
 20
144731.728401582
 10
177089.1776409255
 20
144732.5046437104
 10
177088.868043247
 20
144738.9815301505
 10
177088.3543536032
 20
144745.4311890121
 10
177089.2675796367
 20
144750.853468586
 10
177090.2378822973
 20
144753.4219168051
 10
177092.2415840461
 20
144758.174437833
 10
177093.7255763505
 20
144762.0556484754
 10
177093.2118867067
 20
144765.0236330842
 10
177091.9562009106
 20
144768.6765372182
 10
177090.8342884593
 20
144770.4298598567
 10
177090.5489053239
 20
144772.7700015676
 10
177090.2064455613
 20
144774.9389133971
 10
177088.779529884
 20
144776.3658290744
 10
177087.1813843253
 20
144777.2219784809
 10
177085.4690855126
 20
144778.3064343956
 10
177084.9553958687
 20
144778.9913539207
  0
ARC
  5
198FB4
330
181BB7
100
AcDbEntity
  8
Arcering
 62
     6
100
AcDbCircle
 10
177085.9547858701
 20
144766.0658623497
 30
0.0
 40
12.60492216703066
100
AcDbArc
 50
55.55244571582409
 51
93.37720057955946
  0
ARC
  5
198FB5
330
181BB7
100
AcDbEntity
  8
Arcering
 62
     6
100
AcDbCircle
 10
177098.5584385497
 20
144776.6617533262
 30
0.0
 40
2.122865421179325
100
AcDbArc
 50
349.5796638747701
 51
147.1907782401104
  0
ARC
  5
198FB6
330
181BB7
100
AcDbEntity
  8
Arcering
 62
     6
100
AcDbCircle
 10
177099.215396029
 20
144778.319788869
 30
0.0
 40
2.493432461106386
100
AcDbArc
 50
191.7501825099881
 51
305.0202596048618
  0
LWPOLYLINE
  5
198FB7
330
181BB7
100
AcDbEntity
  8
Arcering
 62
     6
100
AcDbPolyline
 90
       29
 70
     0
 43
0.0
 10
177162.3367266191
 20
144765.416520365
 10
177157.7873089299
 20
144763.4812146095
 10
177154.0202515417
 20
144762.1684521863
 10
177151.9654929664
 20
144761.5406092883
 10
177150.9951903058
 20
144760.6844598819
 10
177149.1116616117
 20
144760.3420001193
 10
177148.1984355782
 20
144760.5132300006
 10
177147.3993627989
 20
144760.5132300006
 10
177148.084282324
 20
144761.4835326612
 10
177148.5979719679
 20
144762.5109119489
 10
177146.4290601383
 20
144761.5976859154
 10
177144.7167613255
 20
144760.9698430174
 10
177142.8332326314
 20
144760.3420001193
 10
177141.0638571915
 20
144759.7712338484
 10
177139.2944817516
 20
144758.8009311878
 10
177137.2397231762
 20
144757.4310921376
 10
177135.869884126
 20
144756.8603258666
 10
177132.9018995172
 20
144756.5749427312
 10
177130.6759110605
 20
144756.6320193583
 10
177127.7079264516
 20
144756.5749427312
 10
177125.4248613679
 20
144756.7461726125
 10
177123.3130261654
 20
144756.7461726125
 10
177121.4865740985
 20
144757.3740155105
 10
177120.573348065
 20
144757.8877051543
 10
177119.1464323876
 20
144758.8580078149
 10
177118.2902829812
 20
144759.4858507129
 10
177117.7195167103
 20
144760.113693611
 10
177117.2629036935
 20
144760.4561533735
 10
177117.2629036935
 20
144760.4561533735
  0
LWPOLYLINE
  5
198FB8
330
181BB7
100
AcDbEntity
  8
Arcering
 62
     6
100
AcDbPolyline
 90
       51
 70
     1
 43
0.0
 10
177099.2960844546
 20
144729.1730337482
 10
177097.7550155231
 20
144731.5702520861
 10
177095.8714868289
 20
144732.9400911363
 10
177093.9879581349
 20
144734.0245470511
 10
177091.5336631698
 20
144733.5108574073
 10
177089.9355176112
 20
144732.3693248654
 10
177088.2931172342
 20
144732.0489799906
 10
177087.2529161379
 20
144731.0565624422
 10
177086.6250732398
 20
144730.0862597816
 10
177086.3396901043
 20
144729.058880494
 10
177086.3396901043
 20
144729.058880494
 10
177087.0816862566
 20
144729.686723392
 10
177087.7666057817
 20
144729.6296467649
 10
177088.3944486797
 20
144729.9721065275
 10
177089.3647513403
 20
144730.3716429171
 10
177089.8784409842
 20
144730.885332561
 10
177092.0473528137
 20
144731.5702520861
 10
177089.8784409842
 20
144730.885332561
 10
177089.5408213196
 20
144729.8813318597
 10
177089.5408213196
 20
144729.1098385066
 10
177089.8915001164
 20
144729.1332170931
 10
177090.5461005372
 20
144729.6241674087
 10
177091.1773223716
 20
144729.9280890327
 10
177092.4163874538
 20
144730.1618748972
 10
177093.4216666715
 20
144730.2320106566
 10
177094.0996456788
 20
144729.9047104462
 10
177094.2399171975
 20
144729.3670029577
 10
177093.8191026413
 20
144728.6890239504
 10
177093.3047737392
 20
144726.9356299661
 10
177092.7670662507
 20
144725.3692646734
 10
177092.490130456
 20
144724.4797140249
 10
177092.1248400427
 20
144722.9728910696
 10
177092.8554208695
 20
144722.4706167512
 10
177093.0837273778
 20
144721.7400359244
 10
177092.6271143611
 20
144720.8724711926
 10
177092.353146551
 20
144720.5528420808
 10
177093.5403403946
 20
144721.1007777009
 10
177093.8143082046
 20
144722.2879715445
 10
177094.0882760147
 20
144723.5208266897
 10
177094.5448890314
 20
144725.6669078684
 10
177095.3211311599
 20
144727.1737308237
 10
177095.6864215733
 20
144728.3609246672
 10
177096.3713410984
 20
144727.9043116505
 10
177096.8279541152
 20
144726.4431499969
 10
177097.1932445286
 20
144724.7993431366
 10
177097.0105993219
 20
144723.2925201813
 10
177097.8781640537
 20
144723.201197578
 10
177098.1977931654
 20
144724.4340527232
 10
177098.7000674838
 20
144725.3472787567
 10
177099.1110191989
 20
144726.4431499969
 10
177099.4763096123
 20
144727.8586503488
  0
LWPOLYLINE
  5
198FB9
330
181BB7
100
AcDbEntity
  8
Arcering
 62
     6
100
AcDbPolyline
 90
        5
 70
     0
 43
0.0
 10
177115.0901095453
 20
144717.9720072359
 10
177116.8618056339
 20
144722.2394564114
 10
177118.6454502305
 20
144728.4822124998
 10
177119.983183678
 20
144735.5276086566
 10
177119.1805436095
 20
144738.3814400113
  0
LWPOLYLINE
  5
198FBA
330
181BB7
100
AcDbEntity
  8
Arcering
 62
     6
100
AcDbPolyline
 90
        8
 70
     0
 43
0.0
 10
177104.241596937
 20
144702.9221848063
 10
177101.8158402855
 20
144701.4239233451
 10
177098.7479715793
 20
144699.7829703161
 10
177096.6789438471
 20
144697.7852883679
 10
177093.4683835731
 20
144694.2893449584
 10
177091.3280100571
 20
144693.2191582004
 10
177089.1876365411
 20
144690.5793641973
 10
177087.4753377283
 20
144688.082261762
  0
LWPOLYLINE
  5
198FBB
330
181BB7
100
AcDbEntity
  8
Arcering
 62
     6
100
AcDbPolyline
 90
        3
 70
     0
 43
0.0
 10
177147.1284797092
 20
144786.2599329512
 10
177143.0879716324
 20
144781.3594274517
 10
177139.9830031185
 20
144777.9348298261
  0
LWPOLYLINE
  5
198FBC
330
181BB7
100
AcDbEntity
  8
Arcering
 62
     6
100
AcDbPolyline
 90
        4
 70
     0
 43
0.0
 10
177150.5510029205
 20
144784.8522576979
 10
177147.3344726882
 20
144782.2269921835
 10
177143.6815685542
 20
144779.3959914797
 10
177141.3985034704
 20
144776.8846198876
  0
LWPOLYLINE
  5
198FBD
330
181BB7
100
AcDbEntity
  8
Arcering
 62
     6
100
AcDbPolyline
 90
        4
 70
     0
 43
0.0
 10
177153.8531264115
 20
144781.5590994467
 10
177147.8824083082
 20
144778.6197493512
 10
177144.549133286
 20
144776.8846198876
 10
177141.6724712805
 20
144775.0125065189
  0
LWPOLYLINE
  5
198FBE
330
181BB7
100
AcDbEntity
  8
Arcering
 62
     6
100
AcDbPolyline
 90
        5
 70
     0
 43
0.0
 10
177157.5626042633
 20
144778.2942630674
 10
177152.4485384757
 20
144776.5649907758
 10
177147.6541017999
 20
144774.9668452172
 10
177143.8642137609
 20
144773.6426674687
 10
177142.3117295039
 20
144772.6837801335
  0
LWPOLYLINE
  5
198FBF
330
181BB7
100
AcDbEntity
  8
Arcering
 62
     6
100
AcDbPolyline
 90
        4
 70
     0
 43
0.0
 10
177159.8842206775
 20
144773.9253897231
 10
177153.3610510514
 20
144773.4807125393
 10
177147.7447109454
 20
144772.7501317125
 10
177143.2242420796
 20
144772.1108734891
  0
LWPOLYLINE
  5
198FC0
330
181BB7
100
AcDbEntity
  8
Arcering
 62
     6
100
AcDbPolyline
 90
        4
 70
     0
 43
0.0
 10
177160.9120940069
 20
144769.069424499
 10
177153.7263414648
 20
144768.7319371651
 10
177147.7903722471
 20
144768.7319371651
 10
177142.8589516662
 20
144768.8689210702
  0
LWPOLYLINE
  5
198FC1
330
181BB7
100
AcDbEntity
  8
Arcering
 62
     6
100
AcDbPolyline
 90
        4
 70
     0
 43
0.0
 10
177158.5340816569
 20
144763.7988890142
 10
177152.3108411129
 20
144764.4397748077
 10
177145.7356136717
 20
144765.4899847462
 10
177142.6306451578
 20
144765.9009364613
  0
LWPOLYLINE
  5
198FC2
330
181BB7
100
AcDbEntity
  8
Arcering
 62
     6
100
AcDbPolyline
 90
        2
 70
     0
 43
0.0
 10
177145.2898452141
 20
144761.9432431386
 10
177142.5501671136
 20
144763.2582886269
  0
LWPOLYLINE
  5
198FC3
330
181BB7
100
AcDbEntity
  8
Arcering
 62
     6
100
AcDbPolyline
 90
        4
 70
     0
 43
0.0
 10
177178.3577545902
 20
144770.0149099746
 10
177171.5991737812
 20
144767.2338183955
 10
177165.1780532332
 20
144765.0220990956
 10
177160.1838483626
 20
144763.1671087151
  0
LWPOLYLINE
  5
198FC4
330
181BB7
100
AcDbEntity
  8
Arcering
 62
     6
100
AcDbPolyline
 90
        4
 70
     0
 43
0.0
 10
177181.6900570427
 20
144766.0243951405
 10
177172.0282064966
 20
144764.0855463352
 10
177165.5357401648
 20
144763.1580511449
 10
177160.3988437264
 20
144761.7311354676
  0
LWPOLYLINE
  5
198FC5
330
181BB7
100
AcDbEntity
  8
Arcering
 62
     6
100
AcDbPolyline
 90
        4
 70
     0
 43
0.0
 10
177184.2812331749
 20
144760.5476416338
 10
177174.1685800127
 20
144760.2328740064
 10
177164.4655534068
 20
144760.3042197903
 10
177160.6842268618
 20
144759.5194161677
  0
LWPOLYLINE
  5
198FC6
330
181BB7
100
AcDbEntity
  8
Arcering
 62
     6
100
AcDbPolyline
 90
        4
 70
     0
 43
0.0
 10
177188.1024218536
 20
144754.4925280163
 10
177177.3791402867
 20
144755.1673233518
 10
177165.8924690841
 20
144756.2375101098
 10
177159.3286569684
 20
144755.9521269744
  0
LWPOLYLINE
  5
198FC7
330
181BB7
100
AcDbEntity
  8
Arcering
 62
     6
100
AcDbPolyline
 90
        5
 70
     0
 43
0.0
 10
177186.0918726931
 20
144748.0020201262
 10
177175.12675389
 20
144750.6639774742
 10
177170.3779785158
 20
144752.7187360496
 10
177162.5242346277
 20
144753.9059298931
 10
177159.2366209072
 20
144754.4082042115
  0
LWPOLYLINE
  5
198FC8
330
181BB7
100
AcDbEntity
  8
Arcering
 62
     6
100
AcDbPolyline
 90
        5
 70
     0
 43
0.0
 10
177183.9293534458
 20
144741.5144623842
 10
177173.8482374431
 20
144744.6470307918
 10
177167.4271168951
 20
144747.7148994981
 10
177162.3615662405
 20
144750.3546935011
 10
177157.6527445053
 20
144751.7816091784
  0
LWPOLYLINE
  5
198FC9
330
181BB7
100
AcDbEntity
  8
Arcering
 62
     6
100
AcDbPolyline
 90
        6
 70
     0
 43
0.0
 10
177179.3123965419
 20
144735.564338163
 10
177172.5640133335
 20
144739.153405434
 10
177166.4282759209
 20
144741.5791620855
 10
177162.5042578083
 20
144744.8610681434
 10
177158.6515854794
 20
144746.9300958755
 10
177156.0117914764
 20
144748.7137404722
  0
LWPOLYLINE
  5
198FCA
330
181BB7
100
AcDbEntity
  8
Arcering
 62
     6
100
AcDbPolyline
 90
        6
 70
     0
 43
0.0
 10
177173.5992544764
 20
144730.9470673377
 10
177166.1428927854
 20
144735.0153499697
 10
177161.9334915373
 20
144738.083218676
 10
177158.0808192085
 20
144741.5791620855
 10
177154.584875799
 20
144744.2903018724
 10
177152.1591191476
 20
144745.9312549014
  0
LWPOLYLINE
  5
198FCB
330
181BB7
100
AcDbEntity
  8
Arcering
 62
     6
100
AcDbPolyline
 90
        7
 70
     0
 43
0.0
 10
177167.4581792398
 20
144726.9898485537
 10
177162.7896409437
 20
144730.8772945055
 10
177159.5790806697
 20
144734.373237915
 10
177156.225828828
 20
144737.5124524051
 10
177154.584875799
 20
144740.5089753275
 10
177152.444502283
 20
144743.434152466
 10
177151.0175866057
 20
144744.504339224
  0
LWPOLYLINE
  5
198FCC
330
181BB7
100
AcDbEntity
  8
Arcering
 62
     6
100
AcDbPolyline
 90
        6
 70
     0
 43
0.0
 10
177161.341414098
 20
144724.2759690886
 10
177156.1600569334
 20
144729.206242474
 10
177152.9494966594
 20
144734.2004473446
 10
177150.8804689273
 20
144737.767736538
 10
177148.7400954113
 20
144741.1209883797
 10
177147.3845255178
 20
144742.4765582732
  0
LWPOLYLINE
  5
198FCD
330
181BB7
100
AcDbEntity
  8
Arcering
 62
     6
100
AcDbPolyline
 90
        6
 70
     0
 43
0.0
 10
177151.6155568413
 20
144722.2897024657
 10
177149.7389363854
 20
144726.9231773902
 10
177147.8839460049
 20
144732.4168027479
 10
177146.4570303275
 20
144735.1992883188
 10
177144.8160772986
 20
144737.6963907541
 10
177144.0312736761
 20
144738.9092690798
  0
LWPOLYLINE
  5
198FCE
330
181BB7
100
AcDbEntity
  8
Arcering
 62
     6
100
AcDbPolyline
 90
        6
 70
     0
 43
0.0
 10
177143.3051999365
 20
144718.9564274435
 10
177144.0312736761
 20
144724.1406918194
 10
177143.3178158374
 20
144728.7781677707
 10
177142.8897411342
 20
144732.2741111802
 10
177140.3926386988
 20
144736.8402413477
 10
177139.8932182118
 20
144738.7665775121
  0
LWPOLYLINE
  5
198FCF
330
181BB7
100
AcDbEntity
  8
Arcering
 62
     6
100
AcDbPolyline
 90
        6
 70
     0
 43
0.0
 10
177135.5427786518
 20
144717.7692336
 10
177136.9680410733
 20
144722.214355655
 10
177137.1820784248
 20
144725.424915929
 10
177137.3247699926
 20
144732.3454569641
 10
177137.5388073442
 20
144735.2706341026
 10
177137.2534242087
 20
144736.1981292929
  0
LWPOLYLINE
  5
198FD0
330
181BB7
100
AcDbEntity
  8
Arcering
 62
     6
100
AcDbPolyline
 90
        5
 70
     0
 43
0.0
 10
177128.8250290891
 20
144716.8761359957
 10
177130.0305554145
 20
144722.8404149085
 10
177132.2565438712
 20
144727.4065450759
 10
177132.8843867692
 20
144733.7991273104
 10
177133.2268465318
 20
144735.6826560045
  0
LWPOLYLINE
  5
198FD1
330
181BB7
100
AcDbEntity
  8
Arcering
 62
     6
100
AcDbPolyline
 90
        5
 70
     0
 43
0.0
 10
177122.0306273999
 20
144716.4560520203
 10
177123.9804329426
 20
144722.3838018917
 10
177127.6904137037
 20
144725.9225527715
 10
177128.8319462455
 20
144730.4316063119
 10
177129.8022489062
 20
144734.2557403271
  0
LWPOLYLINE
  5
198FD2
330
181BB7
100
AcDbEntity
  8
Arcering
 62
     6
100
AcDbPolyline
 90
       59
 70
     0
 43
0.0
 10
177115.4635972992
 20
144766.7132479067
 10
177113.8921293496
 20
144767.2556981757
 10
177112.2026611876
 20
144766.2511495389
 10
177109.2346765787
 20
144765.2009396004
 10
177107.7278536234
 20
144765.2009396004
 10
177106.5863210816
 20
144765.2009396004
 10
177106.5863210816
 20
144766.936069064
 10
177107.3625632101
 20
144768.1232629076
 10
177108.0931440368
 20
144769.9040536729
 10
177107.6365310201
 20
144770.8629410081
 10
177106.5863210816
 20
144769.4474406561
 10
177105.7187563497
 20
144767.5753272875
 10
177104.8511916179
 20
144766.662101254
 10
177102.2484974225
 20
144765.9315204272
 10
177101.1069648806
 20
144766.4794560473
 10
177099.1435289086
 20
144767.3013594774
 10
177097.3627381433
 20
144769.4474406561
 10
177097.0887703332
 20
144770.8172797064
 10
177097.7280285567
 20
144771.7761670415
 10
177099.0065450036
 20
144772.1414574549
 10
177100.6046905622
 20
144771.4565379298
 10
177102.3854813275
 20
144770.4976505946
 10
177103.7553203777
 20
144770.4976505946
 10
177104.7598690146
 20
144770.6346344997
 10
177105.4447885397
 20
144771.0912475164
 10
177105.8557402548
 20
144771.5478605332
 10
177105.9470628581
 20
144772.3241026617
 10
177105.125159428
 20
144772.9633608851
 10
177104.0292881878
 20
144773.5112965052
 10
177103.4813525677
 20
144773.7396030136
 10
177102.6594491376
 20
144773.7852643152
 10
177101.2439487856
 20
144773.7852643152
 10
177100.5590292605
 20
144773.8309256169
 10
177098.3672867801
 20
144773.8309256169
 10
177098.0933189701
 20
144773.8309256169
 10
177096.7234799198
 20
144774.0135708236
 10
177096.2212056014
 20
144774.515845142
 10
177095.7645925847
 20
144774.4701838403
 10
177095.1253343612
 20
144773.5569578069
 10
177094.8970278529
 20
144772.8263769801
 10
177094.6687213445
 20
144772.0044735499
 10
177094.4860761378
 20
144770.2236827846
 10
177095.1709956629
 20
144768.488553321
 10
177095.718931283
 20
144766.8447464607
 10
177097.1344316349
 20
144763.8767618518
 10
177097.2714155399
 20
144763.5571327401
 10
177099.6914645287
 20
144761.5936967681
 10
177099.8284484337
 20
144761.2284063547
 10
177099.8284484337
 20
144758.3517443492
 10
177099.4631580203
 20
144757.392857014
 10
177098.5499319868
 20
144756.3426470755
 10
177097.3170768416
 20
144755.4294210419
 10
177095.9472377914
 20
144754.9728080252
 10
177094.8970278529
 20
144754.5618563102
 10
177093.5271888026
 20
144754.6075176118
 10
177093.1162370875
 20
144754.6531789135
 10
177092.4313175624
 20
144756.3883083771
 10
177092.3856562607
 20
144757.529840919
 10
177092.2415840461
 20
144758.174437833
  0
ENDBLK
  5
181BD9
330
181BB7
100
AcDbEntity
  8
0
100
AcDbBlockEnd
  0
BLOCK
  5
19F2CD
330
19F2CC
100
AcDbEntity
  8
0
100
AcDbBlockBegin
  2
*D1318
 70
     1
 10
0.0
 20
0.0
 30
0.0
  3
*D1318
  1

  0
LINE
  5
19F2CF
330
19F2CC
100
AcDbEntity
  8
Maatvoering
 62
     0
440
 16777216
370
    -2
100
AcDbLine
 10
266.6604614412063
 20
182.2337921345024
 30
0.0
 11
351.6604614412063
 21
182.2337921345024
 31
0.0
  0
INSERT
  5
19F2D0
330
19F2CC
100
AcDbEntity
  8
Maatvoering
 62
     0
440
 16777216
370
    -2
100
AcDbBlockReference
  2
_Origin
 10
259.1604614412063
 20
182.2337921345024
 30
0.0
 41
7.5
 42
7.5
 43
7.5
 50
180.0
  0
INSERT
  5
19F2D1
330
19F2CC
100
AcDbEntity
  8
Maatvoering
 62
     0
440
 16777216
370
    -2
100
AcDbBlockReference
  2
_Origin
 10
359.1604614412063
 20
182.2337921345024
 30
0.0
 41
7.5
 42
7.5
 43
7.5
  0
MTEXT
  5
19F2D2
330
19F2CC
100
AcDbEntity
  8
Maatvoering
 62
     0
440
 16777216
100
AcDbMText
 10
309.1604614412063
 20
193.6159544810235
 30
0.0
 40
12.5
 41
0.0
 46
0.0
 71
     5
 72
     1
  1
100
 73
     1
 44
1.0
  0
POINT
  5
19F2D3
330
19F2CC
100
AcDbEntity
  8
Defpoints
 62
     0
440
 16777216
100
AcDbPoint
 10
259.1604614412063
 20
232.2337921345024
 30
0.0
  0
POINT
  5
19F2D4
330
19F2CC
100
AcDbEntity
  8
Defpoints
 62
     0
440
 16777216
100
AcDbPoint
 10
359.1604614412063
 20
232.2337921345024
 30
0.0
  0
POINT
  5
19F2D5
330
19F2CC
100
AcDbEntity
  8
Defpoints
 62
     0
440
 16777216
100
AcDbPoint
 10
359.1604614412063
 20
182.2337921345024
 30
0.0
  0
ENDBLK
  5
19F2CE
330
19F2CC
100
AcDbEntity
  8
0
100
AcDbBlockEnd
  0
BLOCK
  5
19F2D7
330
19F2D6
100
AcDbEntity
  8
0
100
AcDbBlockBegin
  2
*D1319
 70
     1
 10
0.0
 20
0.0
 30
0.0
  3
*D1319
  1

  0
LINE
  5
19F2D9
330
19F2D6
100
AcDbEntity
  8
Maatvoering
 62
     0
440
 16777216
370
    -2
100
AcDbLine
 10
366.6604614412063
 20
182.2337921345024
 30
0.0
 11
401.6604614412062
 21
182.2337921345024
 31
0.0
  0
INSERT
  5
19F2DA
330
19F2D6
100
AcDbEntity
  8
Maatvoering
 62
     0
440
 16777216
370
    -2
100
AcDbBlockReference
  2
_Origin
 10
359.1604614412063
 20
182.2337921345024
 30
0.0
 41
7.5
 42
7.5
 43
7.5
 50
180.0
  0
INSERT
  5
19F2DB
330
19F2D6
100
AcDbEntity
  8
Maatvoering
 62
     0
440
 16777216
370
    -2
100
AcDbBlockReference
  2
_Origin
 10
409.1604614412062
 20
182.2337921345024
 30
0.0
 41
7.5
 42
7.5
 43
7.5
  0
MTEXT
  5
19F2DC
330
19F2D6
100
AcDbEntity
  8
Maatvoering
 62
     0
440
 16777216
100
AcDbMText
 10
384.1604614412063
 20
193.6159544810235
 30
0.0
 40
12.5
 41
0.0
 46
0.0
 71
     5
 72
     1
  1
50
 73
     1
 44
1.0
  0
POINT
  5
19F2DD
330
19F2D6
100
AcDbEntity
  8
Defpoints
 62
     0
440
 16777216
100
AcDbPoint
 10
359.1604614412063
 20
232.2337921345024
 30
0.0
  0
POINT
  5
19F2DE
330
19F2D6
100
AcDbEntity
  8
Defpoints
 62
     0
440
 16777216
100
AcDbPoint
 10
409.1604614412062
 20
232.2337921344733
 30
0.0
  0
POINT
  5
19F2DF
330
19F2D6
100
AcDbEntity
  8
Defpoints
 62
     0
440
 16777216
100
AcDbPoint
 10
409.1604614412062
 20
182.2337921345024
 30
0.0
  0
ENDBLK
  5
19F2D8
330
19F2D6
100
AcDbEntity
  8
0
100
AcDbBlockEnd
  0
BLOCK
  5
19F2E1
330
19F2E0
100
AcDbEntity
  8
0
100
AcDbBlockBegin
  2
*D1320
 70
     1
 10
0.0
 20
0.0
 30
0.0
  3
*D1320
  1

  0
LINE
  5
19F2E3
330
19F2E0
100
AcDbEntity
  8
Maatvoering
 62
     0
440
 16777216
370
    -2
100
AcDbLine
 10
431.6604614412063
 20
182.2337921344733
 30
0.0
 11
416.6604614412062
 21
182.2337921344733
 31
0.0
  0
INSERT
  5
19F2E4
330
19F2E0
100
AcDbEntity
  8
Maatvoering
 62
     0
440
 16777216
370
    -2
100
AcDbBlockReference
  2
_Origin
 10
439.1604614412062
 20
182.2337921344733
 30
0.0
 41
7.5
 42
7.5
 43
7.5
  0
INSERT
  5
19F2E5
330
19F2E0
100
AcDbEntity
  8
Maatvoering
 62
     0
440
 16777216
370
    -2
100
AcDbBlockReference
  2
_Origin
 10
409.1604614412062
 20
182.2337921344733
 30
0.0
 41
7.5
 42
7.5
 43
7.5
 50
180.0
  0
MTEXT
  5
19F2E6
330
19F2E0
100
AcDbEntity
  8
Maatvoering
 62
     0
440
 16777216
100
AcDbMText
 10
424.1604614412063
 20
193.6202177824951
 30
0.0
 40
12.5
 41
0.0
 46
0.0
 71
     5
 72
     1
  1
30
 73
     1
 44
1.0
  0
POINT
  5
19F2E7
330
19F2E0
100
AcDbEntity
  8
Defpoints
 62
     0
440
 16777216
100
AcDbPoint
 10
439.1604614412062
 20
232.2337921344733
 30
0.0
  0
POINT
  5
19F2E8
330
19F2E0
100
AcDbEntity
  8
Defpoints
 62
     0
440
 16777216
100
AcDbPoint
 10
409.1604614412062
 20
232.2337921344733
 30
0.0
  0
POINT
  5
19F2E9
330
19F2E0
100
AcDbEntity
  8
Defpoints
 62
     0
440
 16777216
100
AcDbPoint
 10
409.1604614412062
 20
182.2337921344733
 30
0.0
  0
ENDBLK
  5
19F2E2
330
19F2E0
100
AcDbEntity
  8
0
100
AcDbBlockEnd
  0
BLOCK
  5
19F2EB
330
19F2EA
100
AcDbEntity
  8
0
100
AcDbBlockBegin
  2
*D1321
 70
     1
 10
0.0
 20
0.0
 30
0.0
  3
*D1321
  1

  0
LINE
  5
19F2ED
330
19F2EA
100
AcDbEntity
  8
Maatvoering
 62
     0
440
 16777216
370
    -2
100
AcDbLine
 10
446.6604614412062
 20
182.2337921344733
 30
0.0
 11
531.6604614412063
 21
182.2337921344733
 31
0.0
  0
INSERT
  5
19F2EE
330
19F2EA
100
AcDbEntity
  8
Maatvoering
 62
     0
440
 16777216
370
    -2
100
AcDbBlockReference
  2
_Origin
 10
439.1604614412062
 20
182.2337921344733
 30
0.0
 41
7.5
 42
7.5
 43
7.5
 50
180.0
  0
INSERT
  5
19F2EF
330
19F2EA
100
AcDbEntity
  8
Maatvoering
 62
     0
440
 16777216
370
    -2
100
AcDbBlockReference
  2
_Origin
 10
539.1604614412062
 20
182.2337921344733
 30
0.0
 41
7.5
 42
7.5
 43
7.5
  0
MTEXT
  5
19F2F0
330
19F2EA
100
AcDbEntity
  8
Maatvoering
 62
     0
440
 16777216
100
AcDbMText
 10
489.1604614412062
 20
193.6159544809945
 30
0.0
 40
12.5
 41
0.0
 46
0.0
 71
     5
 72
     1
  1
100
 73
     1
 44
1.0
  0
POINT
  5
19F2F1
330
19F2EA
100
AcDbEntity
  8
Defpoints
 62
     0
440
 16777216
100
AcDbPoint
 10
439.1604614412062
 20
232.2337921344733
 30
0.0
  0
POINT
  5
19F2F2
330
19F2EA
100
AcDbEntity
  8
Defpoints
 62
     0
440
 16777216
100
AcDbPoint
 10
539.1604614412062
 20
232.2337921344733
 30
0.0
  0
POINT
  5
19F2F3
330
19F2EA
100
AcDbEntity
  8
Defpoints
 62
     0
440
 16777216
100
AcDbPoint
 10
539.1604614412062
 20
182.2337921344733
 30
0.0
  0
ENDBLK
  5
19F2EC
330
19F2EA
100
AcDbEntity
  8
0
100
AcDbBlockEnd
  0
ENDSEC
  0
SECTION
  2
ENTITIES
  0
HATCH
  5
19F24D
330
1F
100
AcDbEntity
  8
0
 62
   254
420
 16766136
100
AcDbHatch
 10
0.0
 20
0.0
 30
0.0
210
0.0
220
0.0
230
1.0
  2
SOLID
 70
     1
 71
     0
 91
        1
 92
        7
 72
     0
 73
     1
 93
        6
 10
696.8452736457402
 20
590.202772196877
 10
305.7258658744977
 20
981.3221799678576
 10
209.5593436331256
 20
885.1556577265146
 10
482.5919189461855
 20
612.1230824136
 10
555.4239174084214
 20
684.9550808758067
 10
673.5107498666039
 20
566.8682484177115
 97
        0
 75
     0
 76
     1
 47
0.0
 98
        1
 10
450.8130059435207
 20
732.1493042737129
450
        0
451
        0
460
0.0
461
0.0
452
        1
462
0.0
453
        0
470

1001
ACAD
1010
0.0
1020
0.0
1030
0.0
1001
PE_URL
1000

  0
INSERT
  5
19F24E
330
1F
100
AcDbEntity
  8
0
100
AcDbBlockReference
  2
aanduidingspunt
 10
-14477.89745149811
 20
-30133.96367493554
 30
0.0
 41
1.875
 42
1.875
 43
1.875
  0
MTEXT
  5
19F24F
102
{ACAD_XDICTIONARY
360
19F250
102
}
330
1F
100
AcDbEntity
  8
Tekst
100
AcDbMText
 10
50.00669901675428
 20
1374.99531478429
 30
0.0
 40
15.0
 41
955.5985262747126
 46
15.24
 71
     1
 72
     5
  1
{\fArial|b1|i0|c0|p34;Dakvoet: mastgoot }
 73
     1
 44
1.0
1001
ACAD
1000
ACAD_MTEXT_DEFINED_HEIGHT_BEGIN
1070
    46
1040
15.24
1000
ACAD_MTEXT_DEFINED_HEIGHT_END
  0
HATCH
  5
19F251
330
1F
100
AcDbEntity
  8
Arcering
 62
     3
100
AcDbHatch
 10
0.0
 20
0.0
 30
0.0
210
0.0
220
0.0
230
1.0
  2
LINE
 70
     0
 71
     0
 91
        1
 92
        7
 72
     0
 73
     1
 93
        7
 10
553.3025970649323
 20
446.6600956159236
 10
162.1831892936898
 20
837.7795033871079
 10
148.0410536699637
 20
823.6373677633819
 10
359.1604614412063
 20
612.5179599921976
 10
379.5639826666739
 20
592.1144387667009
 10
409.1604614411771
 20
562.5179599921976
 10
539.1604614412062
 20
432.5179599921975
 97
        0
 75
     0
 76
     1
 52
315.0
 41
1.0
 77
     0
 78
     1
 53
315.0
 43
-175718.9165898581
 44
-144235.0898292331
 45
2.245064030267289
 46
2.245064030267287
 79
     0
 47
0.0
 98
        1
 10
209.3579989626014
 20
770.4939358711126
1001
ACAD
1010
0.0
1020
0.0
1030
0.0
1001
PE_URL
1000

  0
LWPOLYLINE
  5
19F252
330
1F
100
AcDbEntity
  8
0
  6
DASHDOT
370
    30
100
AcDbPolyline
 90
        2
 70
     0
 43
0.0
 10
112.6857146106777
 20
788.2820287040667
 10
412.2738609209773
 20
1087.870175014366
1001
PE_URL
1000

  0
HATCH
  5
19F253
330
1F
100
AcDbEntity
  8
Arcering
 62
     1
100
AcDbHatch
 10
0.0
 20
0.0
 30
-0.1916171874455272
210
0.0
220
0.0
230
1.0
  2
ANSI32
 70
     0
 71
     0
 91
        6
 92
        7
 72
     0
 73
     1
 93
        4
 10
539.1604614412062
 20
303.8668646831356
 10
539.1604614412062
 20
422.5179599921975
 10
439.1604614412062
 20
422.5179599921975
 10
439.1604614411189
 20
303.8668646830775
 97
        0
 92
        7
 72
     0
 73
     1
 93
        3
 10
489.1604614412062
 20
281.3668646831356
 10
539.1604614412062
 20
303.8668646831065
 10
439.1604614412062
 20
303.8668646830775
 97
        0
 92
        7
 72
     0
 73
     1
 93
        3
 10
539.1604614412062
 20
258.8668646831357
 10
539.1604614412062
 20
303.8668646831356
 10
489.1604614412062
 20
281.3668646831356
 97
        0
 92
        7
 72
     0
 73
     1
 93
        3
 10
539.1604614412062
 20
258.8668646831065
 10
489.1604614412062
 20
281.3668646831356
 10
439.1604614412062
 20
258.8668646831065
 97
        0
 92
        7
 72
     0
 73
     1
 93
        3
 10
489.1604614412062
 20
281.3668646831356
 10
439.1604614411189
 20
303.8668646830775
 10
439.1604614412353
 20
258.8668646830774
 97
        0
 92
        7
 72
     0
 73
     1
 93
        4
 10
539.1604614412062
 20
232.2337921345024
 10
539.1604614412062
 20
258.8668646831357
 10
439.1604614412353
 20
258.8668646830774
 10
439.1604614412062
 20
232.2337921345024
 97
        0
 75
     0
 76
     1
 52
0.0
 41
10.0
 77
     0
 78
     2
 53
45.0
 43
-175750.3470114994
 44
-144235.0898292331
 45
-67.35192090801866
 46
67.35192090801866
 79
     0
 53
45.0
 43
-175705.4457114994
 44
-144235.0898292331
 45
-67.35192090801866
 46
67.35192090801866
 79
     0
 47
0.0
 98
        6
 10
492.3131168958788
 20
352.9816043360042
 10
489.4559415137628
 20
293.7720432743081
 10
511.7817770576802
 20
287.3932331188989
 10
496.3663191821251
 20
271.4462077303906
 10
467.1301059698452
 20
283.1406930153026
 10
484.1402663842599
 20
247.5256696476135
1001
ACAD
1010
0.0
1020
0.0
1030
0.0
1001
PE_URL
1000

  0
LWPOLYLINE
  5
19F254
330
1F
100
AcDbEntity
  8
012_1_gevelklinker_1.3
100
AcDbPolyline
 90
        4
 70
     0
 43
0.0
 10
439.1604614412062
 20
232.2337921345024
 10
439.1604614412062
 20
422.5179599921975
 10
539.1604614412062
 20
422.5179599921975
 10
539.1604614412062
 20
232.2337921345024
1001
PE_URL
1000

  0
LWPOLYLINE
  5
19F255
330
1F
100
AcDbEntity
  8
Arcering
  6
HIDDEN
 62
     1
100
AcDbPolyline
 90
        8
 70
     0
 43
0.0
 10
539.1604614412062
 20
303.8668646831356
 10
439.1604614412062
 20
303.8668646831356
 10
439.1604614412062
 20
258.8668646831357
 10
539.1604614412062
 20
258.8668646831357
 10
539.1604614412062
 20
303.8668646831356
 10
439.1604614412062
 20
258.8668646831357
 10
439.1604614412062
 20
303.8668646831356
 10
539.1604614412062
 20
258.8668646831357
  0
HATCH
  5
19F256
330
1F
100
AcDbEntity
  8
Arcering
 62
     1
100
AcDbHatch
 10
0.0
 20
0.0
 30
-0.1916171874455272
210
0.0
220
0.0
230
1.0
  2
ANSI31
 70
     0
 71
     0
 91
        1
 92
        7
 72
     0
 73
     1
 93
        4
 10
359.1604614412063
 20
232.2337921345024
 10
359.1604614412063
 20
348.9271229206934
 10
259.1604614412063
 20
348.9271229206643
 10
259.1604614412063
 20
232.2337921345024
 97
        0
 75
     0
 76
     1
 52
0.0
 41
20.0
 77
     0
 78
     1
 53
45.0
 43
-175750.3470114994
 44
-144235.0898292331
 45
-44.90128060534576
 46
44.90128060534576
 79
     0
 47
0.0
 98
        1
 10
292.4146619280509
 20
299.6587381931895
1001
ACAD
1010
0.0
1020
0.0
1030
0.0
1001
PE_URL
1000

  0
LWPOLYLINE
  5
19F257
330
1F
100
AcDbEntity
  8
0
  6
DASHDOT
370
    30
100
AcDbPolyline
 90
        2
 70
     0
 43
0.0
 10
589.1604614412062
 20
232.2337921345024
 10
209.1604614412063
 20
232.2337921345024
  0
DIMENSION
  5
19F258
102
{ACAD_XDICTIONARY
360
19F259
102
}
330
1F
100
AcDbEntity
  8
Maatvoering
100
AcDbDimension
280
     0
  2
*D1318
 10
359.1604614412063
 20
182.2337921345024
 30
0.0
 11
309.1604614412063
 21
193.6159544810235
 31
0.0
 70
    32
 71
     5
 42
100.0
 73
     0
 74
     0
 75
     0
  3
Schaal 1-5
100
AcDbAlignedDimension
 13
259.1604614412063
 23
232.2337921345024
 33
0.0
 14
359.1604614412063
 24
232.2337921345024
 34
0.0
100
AcDbRotatedDimension
1001
ACAD
1000
DSTYLE
1002
{
1070
   144
1040
1.0
1002
}
  0
DIMENSION
  5
19F25A
102
{ACAD_XDICTIONARY
360
19F25B
102
}
330
1F
100
AcDbEntity
  8
Maatvoering
100
AcDbDimension
280
     0
  2
*D1319
 10
409.1604614412062
 20
182.2337921345024
 30
0.0
 11
384.1604614412063
 21
193.6159544810235
 31
0.0
 70
    32
 71
     5
 42
50.0
 73
     0
 74
     0
 75
     0
  3
Schaal 1-5
100
AcDbAlignedDimension
 13
359.1604614412063
 23
232.2337921345024
 33
0.0
 14
409.1604614412062
 24
232.2337921344733
 34
0.0
100
AcDbRotatedDimension
  0
DIMENSION
  5
19F25C
102
{ACAD_XDICTIONARY
360
19F25D
102
}
330
1F
100
AcDbEntity
  8
Maatvoering
100
AcDbDimension
280
     0
  2
*D1320
 10
409.1604614412062
 20
182.2337921344733
 30
0.0
 11
424.1604614412063
 21
193.6202177824951
 31
0.0
 70
    32
 71
     5
 42
30.0
 73
     0
 74
     0
 75
     0
  3
Schaal 1-5
100
AcDbAlignedDimension
 13
439.1604614412062
 23
232.2337921344733
 33
0.0
 14
409.1604614412062
 24
232.2337921344733
 34
0.0
100
AcDbRotatedDimension
  0
DIMENSION
  5
19F25E
102
{ACAD_XDICTIONARY
360
19F25F
102
}
330
1F
100
AcDbEntity
  8
Maatvoering
100
AcDbDimension
280
     0
  2
*D1321
 10
539.1604614412062
 20
182.2337921344733
 30
0.0
 11
489.1604614412062
 21
193.6159544809945
 31
0.0
 70
    32
 71
     5
 42
100.0
 73
     0
 74
     0
 75
     0
  3
Schaal 1-5
100
AcDbAlignedDimension
 13
439.1604614412062
 23
232.2337921344733
 33
0.0
 14
539.1604614412062
 24
232.2337921344733
 34
0.0
100
AcDbRotatedDimension
  0
LWPOLYLINE
  5
19F260
330
1F
100
AcDbEntity
  8
007_1_glaswol_0.038
100
AcDbPolyline
 90
        4
 70
     0
 43
0.0
 10
359.1604614412063
 20
232.2337921345024
 10
359.1604614412063
 20
612.5179599921976
 10
409.1604614411771
 20
562.5179599921976
 10
409.1604614412062
 20
232.2337921345024
1001
PE_URL
1000

  0
LWPOLYLINE
  5
19F261
330
1F
100
AcDbEntity
  8
143_1_gewapend_beton_λ_2.5
100
AcDbPolyline
 90
        4
 70
     0
 43
0.0
 10
137.1801006168243
 20
558.9271229206933
 10
359.1604614412063
 20
558.9271229206933
 10
359.1604614412063
 20
358.9271229206933
 10
87.18010061682434
 20
358.9271229206933
1001
PE_URL
1000

  0
HATCH
  5
19F262
330
1F
100
AcDbEntity
  8
Arcering
 62
     1
100
AcDbHatch
 10
0.0
 20
0.0
 30
0.0
210
0.0
220
0.0
230
1.0
  2
AR-CONC
 70
     0
 71
     0
 91
        1
 92
        7
 72
     0
 73
     1
 93
        4
 10
359.1604614411772
 20
358.9271229206933
 10
359.1604614411772
 20
558.9271229206933
 10
87.18010061679525
 20
558.9271229206933
 10
87.18010061679525
 20
358.9271229206933
 97
        0
 75
     0
 76
     1
 52
0.0
 41
0.5
 77
     0
 78
    13
 53
50.0
 43
-229424.9729701899
 44
-39592.7178418377
 45
91.09233449800198
 46
-7.969542769451535
 79
     2
 49
9.524999999999945
 49
-104.7749999999995
 53
355.0
 43
-229424.9729701899
 44
-39592.7178418377
 45
-17.62141298783349
 46
95.52832144109
 79
     2
 49
7.62
 49
-83.81999999999999
 53
100.451
 43
-229417.3819701899
 44
-39593.38196683771
 45
73.47125083297965
 46
87.55834391014593
 79
     2
 49
8.095
 49
-89.045
 53
46.1842
 43
-229424.9729701899
 44
-39567.31784183771
 45
135.5395204460649
 46
-21.02116396636358
 79
     2
 49
14.2875
 49
-157.1625
 53
96.6356
 43
-229413.6780201899
 44
-39569.0695918377
 45
118.7021172331185
 46
123.7127779450246
 79
     2
 49
12.1425
 49
-133.5675
 53
351.1840000000001
 43
-229424.9729701899
 44
-39567.31784183771
 45
118.7023029069668
 46
123.7125589302989
 79
     2
 49
11.43
 49
-125.73
 53
21.0
 43
-229412.27297019
 44
-39573.66784183772
 45
75.80743991769164
 46
-51.13275925838124
 79
     2
 49
9.525
 49
-104.775
 53
326.0
 43
-229412.27297019
 44
-39573.66784183772
 45
30.90101417382363
 46
92.09398306115961
 79
     2
 49
7.619999999999972
 49
-83.81999999999955
 53
71.45140000000001
 43
-229405.9557201899
 44
-39577.92889183771
 45
106.7082453850622
 46
40.96142885802871
 79
     2
 49
8.095
 49
-89.045
 53
37.5
 43
-229424.9729701899
 44
-39592.7178418377
 45
1.544301625295908
 46
42.27751943657655
 79
     6
 49
0.0
 49
-82.804
 49
0.0
 49
-85.09
 49
0.0
 49
-84.1375
 53
7.499999999999999
 43
-229424.9729701899
 44
-39592.7178418377
 45
33.40983125515287
 46
50.09028740905975
 79
     6
 49
0.0
 49
-48.51399999999978
 49
0.0
 49
-80.89899999999955
 49
0.0
 49
-32.06749999999978
 53
327.5
 43
-229453.2939701899
 44
-39592.7178418377
 45
67.7952975834357
 46
-2.864371996336721
 79
     6
 49
0.0
 49
-31.75
 49
0.0
 49
-99.05999999999998
 49
0.0
 49
-131.4449999999999
 53
317.5
 43
-229465.9939701899
 44
-39592.7178418377
 45
74.06459069300902
 46
12.71324551666651
 79
     6
 49
0.0
 49
-41.275
 49
0.0
 49
-65.786
 49
0.0
 49
-93.345
 47
0.0
 98
        1
 10
230.4493785185041
 20
432.9300271542161
1001
ACAD
1010
0.0
1020
0.0
1030
0.0
1001
PE_URL
1000

  0
LWPOLYLINE
  5
19F263
330
1F
100
AcDbEntity
  8
041_1_pvc_0.17
100
AcDbPolyline
 90
        8
 70
     0
 43
0.0
 10
188.1604614412063
 20
568.9271229206934
 10
228.1604614412063
 20
568.9271229206934
 10
228.1604614411772
 20
558.9271229206933
 10
188.1604614411772
 20
558.9271229206933
 10
188.1604614412063
 20
568.9271229206934
 10
228.1604614411772
 20
558.9271229206933
 10
228.1604614412063
 20
568.9271229206934
 10
188.1604614411772
 20
558.9271229206933
  0
LWPOLYLINE
  5
19F264
330
1F
100
AcDbEntity
  8
Arcering
 62
     1
370
     5
100
AcDbPolyline
 90
        3
 70
     0
 43
0.0
 10
87.18010061682434
 20
582.9467620963405
 10
113.1604614411771
 20
608.9271229206933
 10
163.1604614411771
 20
558.9271229206933
1001
PE_URL
1000

  0
LWPOLYLINE
  5
19F265
330
1F
100
AcDbEntity
  8
Arcering
 62
     1
370
     5
100
AcDbPolyline
 90
        2
 70
     0
 43
0.0
 10
188.1604614412063
 20
583.9271229207224
 10
163.1604614411771
 20
558.9271229206933
  0
LWPOLYLINE
  5
19F266
330
1F
100
AcDbEntity
  8
168_1_afwerklaag_zand_en_cement_λ_1.5
100
AcDbPolyline
 90
        6
 70
     0
 43
0.0
 10
87.18010061682434
 20
608.9271229206933
 10
188.1604614412063
 20
608.9271229206933
 10
188.1604614412063
 20
568.9271229206934
 10
254.1604614412354
 20
568.9271229206934
 10
254.1604614412063
 20
558.9271229206933
 10
87.18010061682434
 20
558.9271229206933
1001
PE_URL
1000

  0
HATCH
  5
19F267
330
1F
100
AcDbEntity
  8
0
100
AcDbHatch
 10
0.0
 20
0.0
 30
0.0
210
0.0
220
0.0
230
1.0
  2
AR-SAND
 70
     0
 71
     1
 91
        1
 92
        7
 72
     1
 73
     1
 93
        4
 10
264.1604614412063
 20
568.9271229206934
 42
1.0
 10
264.1604614412063
 20
558.9271229206933
 42
0.0
 10
354.1604614412063
 20
558.9271229206933
 42
1.0
 10
354.1604614412063
 20
568.9271229206934
 42
0.0
 97
        1
330
19F268
 75
     0
 76
     1
 52
0.0
 41
0.1
 77
     0
 78
     4
 53
37.5
 43
-227721.3740004988
 44
-39592.7178418377
 45
-0.1600031295984046
 46
4.894132373293423
 79
     6
 49
0.0
 49
-3.860799999999999
 49
0.0
 49
-4.318
 49
0.0
 49
-4.1275
 53
7.499999999999999
 43
-227721.3740004988
 44
-39592.7178418377
 45
4.495232831380026
 46
7.168251005683543
 79
     6
 49
0.0
 49
-2.082799999999986
 49
0.0
 49
-3.479799999999986
 49
0.0
 49
-1.333499999999993
 53
327.5
 43
-227724.4982004988
 44
-39592.7178418377
 45
7.909923702414579
 46
0.0143718467854576
 79
     6
 49
0.0
 49
-1.269999999999999
 49
0.0
 49
-4.571999999999999
 49
0.0
 49
-5.968999999999999
 53
317.5
 43
-227724.4982004988
 44
-39592.7178418377
 45
7.635564524722972
 46
2.229293232572163
 79
     6
 49
0.0
 49
-0.635
 49
0.0
 49
-2.9972
 49
0.0
 49
-3.429
 47
0.0
 98
        1
 10
305.0308883664547
 20
566.0011681334871
1001
ACAD
1010
0.0
1020
0.0
1030
0.0
  0
LWPOLYLINE
  5
19F268
102
{ACAD_REACTORS
330
19F267
102
}
330
1F
100
AcDbEntity
  8
0
100
AcDbPolyline
 90
        4
 70
     1
 43
0.0
 10
264.1604614412063
 20
568.9271229206934
 10
354.1604614412063
 20
568.9271229206934
 42
-0.9999999999999998
 10
354.1604614412063
 20
558.9271229206933
 10
264.1604614412063
 20
558.9271229206933
 42
-0.9999999999999998
  0
INSERT
  5
19F269
330
1F
100
AcDbEntity
  8
0
100
AcDbBlockReference
  2
Muurplaatanker
 10
-2295.564715253422
 20
-19379.04687265638
 30
-0.191617
  0
HATCH
  5
19F26A
330
1F
100
AcDbEntity
  8
Arcering
 62
     3
100
AcDbHatch
 10
0.0
 20
0.0
 30
0.0
210
0.0
220
0.0
230
1.0
  2
LINE
 70
     0
 71
     0
 91
        1
 92
        7
 72
     0
 73
     1
 93
        5
 10
359.1604614412063
 20
612.5179599921976
 10
331.7512985127396
 20
639.9271229206934
 10
188.1604614412063
 20
639.9271229206934
 10
188.1604614412063
 20
568.9271229206934
 10
359.1604614412063
 20
568.9271229206934
 97
        0
 75
     0
 76
     1
 52
135.0
 41
3.000000000000016
 77
     0
 78
     1
 53
135.0
 43
-264231.7852357895
 44
-41272.16398350248
 45
-6.735192090801903
 46
-6.735192090801901
 79
     0
 47
0.0
 98
        1
 10
290.8198975066189
 20
617.3159413362155
1001
ACAD
1010
0.0
1020
0.0
1030
0.0
1001
PE_URL
1000

  0
LWPOLYLINE
  5
19F26B
330
1F
100
AcDbEntity
  8
163_1_naaldhout_λ_0.14
100
AcDbPolyline
 90
        7
 70
     1
 43
0.0
 10
188.1604614412063
 20
639.9271229206934
 10
188.1604614412063
 20
568.9271229206934
 10
359.1604614412063
 20
568.9271229206934
 10
359.1604614412063
 20
612.5179599921976
 10
359.1604614412063
 20
612.5179599921976
 10
359.1604614412063
 20
612.5179599921976
 10
331.7512985127396
 20
639.9271229206934
1001
PE_URL
1000

  0
LWPOLYLINE
  5
19F26C
330
1F
100
AcDbEntity
  8
0
  6
DASHDOT
370
    30
100
AcDbPolyline
 90
        2
 70
     0
 43
0.0
 10
87.18010061682434
 20
658.9271229206933
 10
87.18010061682434
 20
308.9271229206933
1001
PE_URL
1000

  0
HATCH
  5
19F26D
330
1F
100
AcDbEntity
  8
Arcering
 62
     1
100
AcDbHatch
 10
0.0
 20
0.0
 30
-147.0979999999988
210
0.0
220
0.0
230
1.0
  2
ANSI31
 70
     0
 71
     0
 91
        1
 92
        7
 72
     0
 73
     1
 93
        4
 10
359.1604614412063
 20
358.9271229206933
 10
359.1604614412354
 20
409.0159771683683
 10
87.18010061682434
 20
409.0159771683683
 10
87.18010061682434
 20
358.9271229206933
 97
        0
 75
     0
 76
     1
 52
0.0
 41
15.0
 77
     0
 78
     1
 53
45.0
 43
-229476.0320379475
 44
-121077.6729686352
 45
-33.67596045400933
 46
33.67596045400933
 79
     0
 47
0.0
 98
        1
 10
207.6212820591754
 20
395.49882898535
1001
ACAD
1010
0.0
1020
0.0
1030
0.0
1001
PE_URL
1000

  0
LWPOLYLINE
  5
19F26E
330
1F
100
AcDbEntity
  8
143_1_gewapend_beton_λ_2.5
  6
HIDDEN
 48
5.0
100
AcDbPolyline
 90
        4
 70
     0
 43
0.0
 10
87.18010061682434
 20
358.9271229206933
 10
359.1604614412063
 20
358.9271229206933
 10
359.1604614412354
 20
409.0159771683683
 10
87.18010061682434
 20
409.0159771683683
1001
PE_URL
1000

  0
HATCH
  5
19F26F
330
1F
100
AcDbEntity
  8
Arcering
100
AcDbHatch
 10
0.0
 20
0.0
 30
0.0
210
0.0
220
0.0
230
1.0
  2
AR-SAND
 70
     0
 71
     1
 91
        1
 92
        7
 72
     1
 73
     1
 93
        4
 10
264.1604614411731
 20
358.927122920606
 42
1.0
 10
264.1604614411751
 20
348.9271229206643
 42
0.0
 10
334.1604614411772
 20
348.9271229206643
 42
1.0
 10
334.1604614411731
 20
358.9271229206643
 42
0.0
 97
        1
330
19F270
 75
     0
 76
     1
 52
0.0
 41
0.1
 77
     0
 78
     4
 53
37.5
 43
-229476.0320379475
 44
-122117.3906114892
 45
-0.1600031295984046
 46
4.894132373293423
 79
     6
 49
0.0
 49
-3.860799999999999
 49
0.0
 49
-4.318
 49
0.0
 49
-4.1275
 53
7.499999999999999
 43
-229476.0320379475
 44
-122117.3906114892
 45
4.495232831380026
 46
7.168251005683543
 79
     6
 49
0.0
 49
-2.082799999999993
 49
0.0
 49
-3.479799999999993
 49
0.0
 49
-1.333499999999996
 53
327.5
 43
-229479.1562379475
 44
-122117.3906114892
 45
7.909923702414579
 46
0.0143718467854576
 79
     6
 49
0.0
 49
-1.269999999999999
 49
0.0
 49
-4.571999999999999
 49
0.0
 49
-5.968999999999999
 53
317.5
 43
-229479.1562379475
 44
-122117.3906114892
 45
7.635564524722972
 46
2.229293232572163
 79
     6
 49
0.0
 49
-0.635
 49
0.0
 49
-2.9972
 49
0.0
 49
-3.429
 47
0.0
 98
        1
 10
306.8351889109763
 20
355.3278360210534
1001
ACAD
1010
0.0
1020
0.0
1030
0.0
1001
PE_URL
1000

  0
LWPOLYLINE
  5
19F270
102
{ACAD_REACTORS
330
19F26F
102
}
330
1F
100
AcDbEntity
  8
Arcering
100
AcDbPolyline
 90
        4
 70
     1
 43
0.0
 10
264.1604614411772
 20
358.927122920606
 10
334.1604614411772
 20
358.9271229206643
 42
-0.9999999999999998
 10
334.1604614411772
 20
348.9271229206643
 10
264.1604614411772
 20
348.9271229206643
 42
-0.9999999999999998
  0
LWPOLYLINE
  5
19F271
330
1F
100
AcDbEntity
  8
044_1_kalkzandsteen_λ_0.9
100
AcDbPolyline
 90
        4
 70
     0
 43
0.0
 10
259.1604614412063
 20
232.2337921345024
 10
259.1604614412063
 20
348.9271229206643
 10
359.1604614412063
 20
348.9271229206934
 10
359.1604614412063
 20
232.2337921345024
1001
PE_URL
1000

  0
HATCH
  5
19F272
330
1F
100
AcDbEntity
  8
Arcering
 62
     3
100
AcDbHatch
 10
0.0
 20
0.0
 30
0.0
210
0.0
220
0.0
230
1.0
  2
LINE
 70
     0
 71
     0
 91
        1
 92
        7
 72
     0
 73
     1
 93
        5
 10
188.1604614412354
 20
639.9271229206642
 10
188.1604614412936
 20
783.5179599921684
 10
176.1604614412062
 20
795.5179599921684
 10
176.1604614412645
 20
613.9271229206933
 10
188.1604614412644
 20
613.9271229206933
 97
        0
 75
     0
 76
     1
 52
89.99999999999998
 41
1.0
 77
     0
 78
     1
 53
90.0
 43
-175750.3470114994
 44
-144235.0898292331
 45
-3.175
 46
0.0000000000000009
 79
     0
 47
0.0
 98
        1
 10
185.217225082044
 20
709.8440826608275
1001
ACAD
1010
0.0
1020
0.0
1030
0.0
1001
PE_URL
1000

  0
LWPOLYLINE
  5
19F273
330
1F
100
AcDbEntity
  8
067_1_dakbeschot_λ_0.16
100
AcDbPolyline
 90
        4
 70
     0
 43
0.0
 10
148.0410536699928
 20
823.6373677633819
 10
539.1604614412062
 20
432.5179599921975
 10
553.3025970649323
 20
446.6600956159236
 10
162.1831892937189
 20
837.7795033871079
1001
PE_URL
1000

  0
HATCH
  5
19F274
330
1F
100
AcDbEntity
  8
Arcering
 62
     2
100
AcDbHatch
 10
0.0
 20
0.0
 30
-0.191617
210
0.0
220
0.0
230
1.0
  2
ANSI37
 70
     0
 71
     0
 91
        1
 92
        7
 72
     0
 73
     1
 93
        4
 10
600.6787514043971
 20
494.0362499554757
 10
547.6457428153953
 20
547.0692585444485
 10
535.6249275352456
 20
535.0484432642697
 10
588.6579361242765
 20
482.0154346752969
 97
        0
 75
     0
 76
     1
 52
134.9999999999182
 41
0.5000000000000029
 77
     0
 78
     2
 53
179.9999999999181
 43
-175750.3470114994
 44
-144235.0898292331
 45
-0.0000000000022674
 46
-1.587500000000009
 79
     0
 53
270.0
 43
-175750.3470114994
 44
-144235.0898292331
 45
1.587500000000009
 46
-0.0000000000022675
 79
     0
 47
0.0
 98
        1
 10
550.9919360216299
 20
531.8121394702465
1001
ACAD
1010
0.0
1020
0.0
1030
0.0
1001
PE_URL
1000

  0
LWPOLYLINE
  5
19F275
330
1F
100
AcDbEntity
  8
028_1_eps_0.038
100
AcDbPolyline
 90
        4
 70
     0
 43
0.0
 10
162.1831892936316
 20
837.7795033870206
 10
553.3025970649323
 20
446.6600956159236
 10
588.6579361242475
 20
482.0154346752969
 10
197.5385283529758
 20
873.1348424463648
  0
LWPOLYLINE
  5
19F276
330
1F
100
AcDbEntity
  8
103_1_pu_foam_λ_0.05
100
AcDbPolyline
 90
        4
 70
     1
 43
0.0
 10
535.6249275352456
 20
535.0484432642988
 10
588.6579361242475
 20
482.0154346752969
 10
600.6787514043971
 20
494.0362499554757
 10
547.6457428153953
 20
547.0692585444485
1001
PE_URL
1000

  0
LWPOLYLINE
  5
19F277
330
1F
100
AcDbEntity
  8
Arcering
  6
HIDDEN
 48
3.0
100
AcDbPolyline
 90
        3
 70
     0
 43
0.0
 10
290.1695166883874
 20
965.7658307817765
 10
681.2889244596298
 20
574.6464230107667
 10
696.8452736457402
 20
590.202772196877
1001
PE_URL
1000

  0
HATCH
  5
19F278
330
1F
100
AcDbEntity
  8
Arcering
 62
     3
100
AcDbHatch
 10
0.0
 20
0.0
 30
0.0
210
0.0
220
0.0
230
1.0
  2
LINE
 70
     0
 71
     0
 91
        1
 92
        7
 72
     0
 73
     1
 93
        4
 10
631.7914497766178
 20
525.1489483276673
 10
583.0010818746522
 20
573.9393162294581
 10
551.8883835024898
 20
542.8266178573539
 10
600.6787514043971
 20
494.0362499554757
 97
        0
 75
     0
 76
     1
 52
0.0000000000185076
 41
3.000000000000009
 77
     0
 78
     1
 53
0.0000000000185076
 43
-223506.2415550082
 44
20202.95460377584
 45
-0.0000000000030767
 46
9.525000000000023
 79
     0
 47
0.0
 98
        1
 10
603.8667321290704
 20
518.5339306274254
1001
ACAD
1010
0.0
1020
0.0
1030
0.0
1001
PE_URL
1000

  0
LWPOLYLINE
  5
19F279
330
1F
100
AcDbEntity
  8
163_1_naaldhout_λ_0.14
100
AcDbPolyline
 90
        4
 70
     1
 43
0.0
 10
551.888383502519
 20
542.8266178573539
 10
600.6787514043971
 20
494.0362499554757
 10
631.7914497766178
 20
525.1489483276673
 10
583.0010818747105
 20
573.9393162294873
1001
PE_URL
1000

  0
LWPOLYLINE
  5
19F27A
330
1F
100
AcDbEntity
  8
163_1_naaldhout_λ_0.14
100
AcDbPolyline
 90
        3
 70
     0
 43
0.0
 10
321.2822150605789
 20
996.8785291539679
 10
712.4016228318214
 20
605.7591213829873
 10
696.8452736457402
 20
590.202772196877
1001
PE_URL
1000

  0
HATCH
  5
19F27B
330
1F
100
AcDbEntity
  8
Arcering
 62
     3
100
AcDbHatch
 10
0.0
 20
0.0
 30
0.0
210
0.0
220
0.0
230
1.0
  2
LINE
 70
     0
 71
     0
 91
        1
 92
        7
 72
     0
 73
     1
 93
        5
 10
495.3198410075274
 20
612.1230824136
 10
555.4239174083341
 20
672.2271588144649
 10
549.0599563777213
 20
678.5911198451358
 10
482.5919189461855
 20
612.1230824136
 10
488.9558799768565
 20
605.7591213829291
 97
        0
 75
     0
 76
     1
 52
45.0000000000185
 41
1.0
 77
     0
 78
     1
 53
45.0000000000185
 43
-223506.2415550082
 44
20202.95460377584
 45
-2.245064030268013
 46
2.245064030266563
 79
     0
 47
0.0
 98
        1
 10
525.5356595377961
 20
651.2436347054026
1001
ACAD
1010
0.0
1020
0.0
1030
0.0
1001
PE_URL
1000

  0
HATCH
  5
19F27C
330
1F
100
AcDbEntity
  8
Arcering
 62
     3
100
AcDbHatch
 10
0.0
 20
0.0
 30
0.0
210
0.0
220
0.0
230
1.0
  2
LINE
 70
     0
 71
     0
 91
        1
 92
        7
 72
     0
 73
     1
 93
        4
 10
545.524422471819
 20
549.1905788880249
 10
551.8883835024898
 20
555.5545399186958
 10
495.3198410075565
 20
612.1230824136
 10
488.9558799768565
 20
605.7591213829291
 97
        0
 75
     0
 76
     1
 52
315.0000000000185
 41
1.0
 77
     0
 78
     1
 53
315.0000000000185
 43
-223506.2415550082
 44
20202.95460377584
 45
2.245064030266563
 46
2.245064030268013
 79
     0
 47
0.0
 98
        1
 10
517.3566196886822
 20
588.2169158681354
1001
ACAD
1010
0.0
1020
0.0
1030
0.0
1001
PE_URL
1000

  0
HATCH
  5
19F27D
330
1F
100
AcDbEntity
  8
Arcering
 62
     3
100
AcDbHatch
 10
0.0
 20
0.0
 30
0.0
210
0.0
220
0.0
230
1.0
  2
LINE
 70
     0
 71
     0
 91
        1
 92
        7
 72
     0
 73
     1
 93
        5
 10
551.888383502519
 20
542.8266178573539
 10
583.0010818747105
 20
573.9393162294581
 10
576.6371208440395
 20
580.3032772602164
 10
551.8883835024898
 20
555.5545399186667
 10
545.524422471819
 20
549.1905788880249
 97
        0
 75
     0
 76
     1
 52
45.0000000000185
 41
1.0
 77
     0
 78
     1
 53
45.0000000000185
 43
-223506.2415550082
 44
20202.95460377584
 45
-2.245064030268013
 46
2.245064030266563
 79
     0
 47
0.0
 98
        1
 10
567.1525387700531
 20
560.0713963873858
1001
ACAD
1010
0.0
1020
0.0
1030
0.0
1001
PE_URL
1000

  0
HATCH
  5
19F27E
330
1F
100
AcDbEntity
  8
Arcering
 62
     3
100
AcDbHatch
 10
0.0
 20
0.0
 30
0.0
210
0.0
220
0.0
230
1.0
  2
LINE
 70
     0
 71
     0
 91
        1
 92
        7
 72
     0
 73
     1
 93
        5
 10
631.7914497766178
 20
525.1489483276673
 10
638.1554108072887
 20
531.5129093583382
 10
583.0010818747105
 20
586.6672382908872
 10
576.6371208440395
 20
580.3032772602164
 10
583.0010818747105
 20
573.9393162295746
 97
        0
 75
     0
 76
     1
 52
315.0000000000185
 41
1.0
 77
     0
 78
     1
 53
315.0000000000185
 43
-223506.2415550082
 44
20202.95460377584
 45
2.245064030266563
 46
2.245064030268013
 79
     0
 47
0.0
 98
        1
 10
599.8686981665378
 20
561.5147563607315
1001
ACAD
1010
0.0
1020
0.0
1030
0.0
1001
PE_URL
1000

  0
LWPOLYLINE
  5
19F27F
330
1F
100
AcDbEntity
  8
156_1_eps_hr_λ_0.030
100
AcDbPolyline
 90
        6
 70
     0
 43
0.0
 10
305.7258658744977
 20
981.3221799678867
 10
696.8452736457402
 20
590.202772196877
 10
673.5107498666039
 20
566.8682484177115
 10
555.4239174084214
 20
684.9550808758067
 10
482.5919189461855
 20
612.1230824136
 10
209.5593436331256
 20
885.1556577265146
1001
PE_URL
1000

  0
HATCH
  5
19F280
330
1F
100
AcDbEntity
  8
Arcering
 62
     3
100
AcDbHatch
 10
0.0
 20
0.0
 30
0.0
210
0.0
220
0.0
230
1.0
  2
LINE
 70
     0
 71
     0
 91
        1
 92
        7
 72
     0
 73
     1
 93
        5
 10
667.1467888359329
 20
560.5042873870115
 10
673.5107498666039
 20
566.8682484177115
 10
555.4239174084214
 20
684.9550808758067
 10
549.0599563777213
 20
678.5911198451358
 10
555.4239174083923
 20
672.2271588144649
 97
        0
 75
     0
 76
     1
 52
315.0000000000185
 41
1.0
 77
     0
 78
     1
 53
315.0000000000185
 43
-223506.2415550082
 44
20202.95460377584
 45
2.245064030266563
 46
2.245064030268013
 79
     0
 47
0.0
 98
        1
 10
625.849177687196
 20
606.2589155353198
1001
ACAD
1010
0.0
1020
0.0
1030
0.0
1001
PE_URL
1000

  0
LWPOLYLINE
  5
19F281
330
1F
100
AcDbEntity
  8
011_1_multiplex_0.17
100
AcDbPolyline
 90
        4
 70
     1
 43
0.0
 10
555.4239174084214
 20
684.9550808758067
 10
673.5107498666039
 20
566.8682484177115
 10
667.1467888359329
 20
560.5042873870115
 10
549.0599563777213
 20
678.5911198451358
1001
PE_URL
1000

  0
LWPOLYLINE
  5
19F282
330
1F
100
AcDbEntity
  8
011_1_multiplex_0.17
100
AcDbPolyline
 90
        4
 70
     1
 43
0.0
 10
555.4239174083923
 20
672.2271588144649
 10
488.9558799768565
 20
605.7591213829291
 10
482.5919189461855
 20
612.1230824136
 10
549.0599563777213
 20
678.5911198451358
1001
PE_URL
1000

  0
LWPOLYLINE
  5
19F283
330
1F
100
AcDbEntity
  8
011_1_multiplex_0.17
100
AcDbPolyline
 90
        4
 70
     1
 43
0.0
 10
495.3198410075565
 20
612.1230824136
 10
551.8883835024898
 20
555.5545399186958
 10
545.524422471819
 20
549.1905788880249
 10
488.9558799768565
 20
605.7591213829291
1001
PE_URL
1000

  0
LWPOLYLINE
  5
19F284
330
1F
100
AcDbEntity
  8
011_1_multiplex_0.17
100
AcDbPolyline
 90
        4
 70
     1
 43
0.0
 10
583.0010818747105
 20
573.9393162295746
 10
551.8883835024898
 20
542.8266178573539
 10
545.524422471819
 20
549.1905788880249
 10
576.6371208440395
 20
580.3032772602164
1001
PE_URL
1000

  0
LWPOLYLINE
  5
19F285
330
1F
100
AcDbEntity
  8
011_1_multiplex_0.17
100
AcDbPolyline
 90
        4
 70
     1
 43
0.0
 10
583.0010818747105
 20
586.6672382908872
 10
638.1554108072887
 20
531.5129093583382
 10
631.7914497766178
 20
525.1489483276673
 10
576.6371208440395
 20
580.3032772602164
1001
PE_URL
1000

  0
LWPOLYLINE
  5
19F286
330
1F
100
AcDbEntity
  8
011_1_multiplex_0.17
100
AcDbPolyline
 90
        6
 70
     1
 43
0.0
 10
667.1467888359329
 20
560.5042873870115
 10
638.1554108072887
 20
531.5129093583382
 10
583.0010818747105
 20
586.6672382908872
 10
551.8883835024898
 20
555.5545399186958
 10
495.3198410075565
 20
612.1230824136
 10
555.4239174083923
 20
672.2271588144649
1001
PE_URL
1000

  0
LWPOLYLINE
  5
19F287
330
1F
100
AcDbEntity
  8
007_1_glaswol_0.038
100
AcDbPolyline
 90
        3
 70
     1
 43
0.0
 10
188.1604614412063
 20
639.9271229206934
 10
188.1604614412063
 20
783.5179599921684
 10
331.7512985127396
 20
639.9271229206934
1001
PE_URL
1000

  0
LWPOLYLINE
  5
19F288
330
1F
100
AcDbEntity
  8
058_1_staal_λ_50
100
AcDbPolyline
 90
        9
 70
     0
 43
0.0
 10
742.2259212103672
 20
610.4802438676415
 10
735.9579311354609
 20
621.3367211387085
 10
735.9579311354609
 20
556.3382269123976
 42
0.9936377933125136
 10
933.2780126078286
 20
556.3404887435026
 10
933.2780126078286
 20
579.3282125342812
 10
957.5206532949524
 20
579.3282125342812
 10
962.116847372672
 20
579.3282125342812
 42
-3.732050807567316
 10
945.6623647007509
 20
569.8282125342812
 10
962.116847372672
 20
560.3282125342811
1001
PE_URL
1000

  0
LWPOLYLINE
  5
19F289
330
1F
100
AcDbEntity
  8
058_1_staal_λ_50
100
AcDbPolyline
 90
       15
 70
     0
 43
0.0
 10
733.9579720179317
 20
623.8007519433449
 10
733.9579720179317
 20
556.3254390971269
 42
0.9936377933125191
 10
935.2779720179968
 20
556.32774677829
 10
935.2779720179968
 20
577.3154705690976
 10
960.7979720180155
 20
577.3154705690976
 10
960.7979720180155
 20
571.3154705690977
 10
941.2779720179969
 20
571.3154705690977
 10
941.2779720179969
 20
556.3089102662634
 42
-0.9938187687222324
 10
727.9579720179317
 20
556.3065348033269
 10
727.9579720179317
 20
621.3154705690977
 10
625.4379720179131
 20
723.8354705691163
 10
629.6806127050367
 20
728.0781112562108
 10
733.9579720179317
 20
623.8007519433449
 10
733.9579720179317
 20
628.8007519433449
 10
743.9579720179317
 20
611.4802438676415
1001
PE_URL
1000

  0
HATCH
  5
19F28A
330
1F
100
AcDbEntity
  8
Arcering
 62
     3
100
AcDbHatch
 10
0.0
 20
0.0
 30
0.0
210
0.0
220
0.0
230
1.0
  2
LINE
 70
     0
 71
     0
 91
        3
 92
        7
 72
     0
 73
     1
 93
        4
 10
640.3898682357976
 20
677.7708759790112
 10
655.9462174219079
 20
693.3272251651215
 10
625.4379720179131
 20
723.8354705691163
 10
609.8816228318028
 20
708.2791213830059
 97
        0
 92
        7
 72
     0
 73
     1
 93
        4
 10
642.9778790548734
 20
675.1828651599353
 10
658.5342282409838
 20
690.7392143460165
 10
655.9462174219079
 20
693.3272251651215
 10
640.3898682357976
 20
677.7708759790112
 97
        0
 92
        7
 72
     0
 73
     1
 93
        4
 10
727.9579720179317
 20
621.3154705690977
 10
658.5342282409838
 20
690.7392143460165
 10
642.9778790548734
 20
675.1828651599353
 10
712.4016228318214
 20
605.7591213829873
 97
        0
 75
     0
 76
     1
 52
360.0
 41
3.000000000000007
 77
     0
 78
     1
 53
360.0
 43
-2898.754992836708
 44
-16234.88775094299
 45
0.0000000000000023
 46
9.525000000000025
 79
     0
 47
0.0
 98
        3
 10
647.1280630122637
 20
689.4165532621846
 10
648.5935460294713
 20
685.9631213510875
 10
655.666174583399
 20
682.3482223124301
1001
ACAD
1010
0.0
1020
0.0
1030
0.0
1001
PE_URL
1000

  0
LWPOLYLINE
  5
19F28B
330
1F
100
AcDbEntity
  8
163_1_naaldhout_λ_0.14
100
AcDbPolyline
 90
        4
 70
     1
 43
0.0
 10
609.8816228318028
 20
708.2791213830059
 10
712.4016228318214
 20
605.7591213829873
 10
727.9579720179317
 20
621.3154705690977
 10
625.4379720179131
 20
723.8354705691163
1001
PE_URL
1000

  0
LWPOLYLINE
  5
19F28C
330
1F
100
AcDbEntity
  8
109_1_keramische_tegels_λ_1.3
100
AcDbPolyline
 90
       26
 70
     0
 43
0.0
 10
481.4102459217829
 20
881.7827805071429
 10
502.8019857408653
 20
908.2067183466861
 10
817.5566686779493
 20
653.3274753199657
 42
-0.4125215036123774
 10
819.7608089269197
 20
632.2359067258076
 10
798.2715801683952
 20
605.6973697020439
 10
788.6746608375106
 20
593.8431704732356
 10
780.4132723078947
 20
600.5154358375293
 42
-0.236067980479353
 10
779.0118002899398
 20
603.5999612526502
 10
778.4626631094433
 20
608.9246293682954
 42
0.4104197393218797
 10
774.3533227735315
 20
612.2688964034023
 10
770.097150126181
 20
611.8117373544955
 42
-0.4155435613036138
 10
765.3636446605669
 20
615.6305756607034
 10
765.0357311702391
 20
618.8278358538518
 42
0.4114403592902927
 10
761.4901832841278
 20
621.6879589663586
 10
758.3134718239307
 20
621.3492698275076
 42
-0.4146423073718517
 10
752.4061991018534
 20
626.1195702466648
 10
750.3864796154375
 20
640.4508219771669
 42
0.1788147435671009
 10
741.9761586562672
 20
655.3479962515411
 10
518.1460068365558
 20
836.5916356884991
 42
-0.1990371957814237
 10
509.5455080610991
 20
843.4868456790864
 10
489.4017581719672
 20
859.8716844150622
 10
479.6295734961459
 20
849.7660223059646
 10
465.0459300163492
 20
861.5792074333294
 10
481.4102459217829
 20
881.7827805071429
 10
796.1463896890636
 20
626.9096318498196
 42
-0.4158631946149464
 10
798.2715801683952
 20
605.6973697020439
1001
PE_URL
1000

  0
LWPOLYLINE
  5
19F28D
330
1F
100
AcDbEntity
  8
041_1_pvc_0.17
  6
HIDDEN
100
AcDbPolyline
 90
        6
 70
     1
 43
0.0
 10
679.5263991426618
 20
700.8597418165591
 10
680.940612705046
 20
702.2739553789433
 10
656.1918753635255
 20
727.022692720493
 10
656.1918753635836
 20
782.022692720493
 10
654.1918753635837
 20
782.022692720493
 10
654.1918753635254
 20
726.1942655957536
1001
PE_URL
1000

  0
HATCH
  5
19F28E
330
1F
100
AcDbEntity
  8
Arcering
 62
     3
100
AcDbHatch
 10
0.0
 20
0.0
 30
0.0
210
0.0
220
0.0
230
1.0
  2
LINE
 70
     0
 71
     1
 91
        1
 92
        1
 93
        4
 72
     1
 10
638.5142058338388
 20
710.7592367531615
 11
663.9700499565515
 21
685.3033926304488
 72
     1
 10
663.9700499565515
 20
685.3033926304488
 11
679.5263991426618
 21
700.8597418165591
 72
     1
 10
679.5263991426618
 20
700.8597418165591
 11
654.0705550199491
 21
726.3155859392718
 72
     1
 10
654.0705550199491
 20
726.3155859392718
 11
638.5142058338388
 21
710.7592367531615
 97
        1
330
19F28F
 75
     0
 76
     1
 52
360.0
 41
3.000000000000007
 77
     0
 78
     1
 53
360.0
 43
-16531.75846829457
 44
-11738.81584499439
 45
0.0000000000000018
 46
9.525000000000009
 79
     0
 98
        1
 10
-16531.75846829457
 20
-11738.81584499439
1001
ACAD
1010
0.0
1020
0.0
1030
0.0
1001
PE_URL
1000

  0
LWPOLYLINE
  5
19F28F
102
{ACAD_REACTORS
330
19F28E
102
}
330
1F
100
AcDbEntity
  8
163_1_naaldhout_λ_0.14
100
AcDbPolyline
 90
        4
 70
     1
 43
0.0
 10
638.5142058338388
 20
710.7592367531615
 10
663.9700499565515
 20
685.3033926304488
 10
679.5263991426618
 20
700.8597418165591
 10
654.0705550199491
 20
726.3155859392718
1001
PE_URL
1000

  0
HATCH
  5
19F290
330
1F
100
AcDbEntity
  8
Arcering
 62
     3
100
AcDbHatch
 10
0.0
 20
0.0
 30
0.0
210
0.0
220
0.0
230
1.0
  2
LINE
 70
     0
 71
     1
 91
        1
 92
        1
 93
        4
 72
     1
 10
473.8454089858569
 20
844.315335228981
 11
499.3012531085987
 21
818.8594911062391
 72
     1
 10
499.3012531085987
 20
818.8594911062391
 11
514.8576022946799
 21
834.4158402923493
 72
     1
 10
514.8576022946799
 20
834.4158402923493
 11
489.4017581719672
 21
859.8716844150622
 72
     1
 10
489.4017581719672
 20
859.8716844150622
 11
473.8454089858569
 21
844.315335228981
 97
        1
330
19F291
 75
     0
 76
     1
 52
360.0
 41
3.000000000000008
 77
     0
 78
     1
 53
360.0
 43
-16696.42726514255
 44
-11605.25974651859
 45
0.0000000000000018
 46
9.525000000000009
 79
     0
 98
        1
 10
-16696.42726514255
 20
-11605.25974651859
1001
ACAD
1010
0.0
1020
0.0
1030
0.0
1001
PE_URL
1000

  0
LWPOLYLINE
  5
19F291
102
{ACAD_REACTORS
330
19F290
102
}
330
1F
100
AcDbEntity
  8
163_1_naaldhout_λ_0.14
100
AcDbPolyline
 90
        4
 70
     1
 43
0.0
 10
473.8454089858569
 20
844.315335228981
 10
499.3012531085987
 20
818.8594911062391
 10
514.8576022946799
 20
834.4158402923493
 10
489.4017581719672
 20
859.8716844150622
1001
PE_URL
1000

  0
LWPOLYLINE
  5
19F292
330
1F
100
AcDbEntity
  8
109_1_keramische_tegels_λ_1.3
100
AcDbPolyline
 90
       18
 70
     0
 43
0.0
 10
376.9185218616621
 20
1052.514835955051
 10
594.8180326041765
 20
876.0661113937386
 42
-0.4125215036123774
 10
597.022172853176
 20
854.9745427995512
 10
575.5329440946225
 20
828.4360057757876
 10
565.9360247637668
 20
816.5818065469792
 10
557.6746362341509
 20
823.254071911273
 42
-0.236067980479353
 10
556.273164216167
 20
826.338597326394
 10
555.7240270356997
 20
831.6632654420391
 42
0.4104197393218797
 10
551.6146866997587
 20
835.0075324771751
 10
547.3585140524082
 20
834.5503734282683
 42
-0.4155435613036138
 10
542.6250085867941
 20
838.3692117344471
 10
542.2970950964663
 20
841.5664719275955
 42
0.4114403592902927
 10
538.751547210355
 20
844.4265950401312
 10
535.5748357501579
 20
844.0879059012804
 42
-0.4146423073718517
 10
529.6675630280806
 20
848.8582063204376
 10
527.6478435416647
 20
863.1894580509397
 42
0.1788147435671009
 10
519.2375225824944
 20
878.0866323252849
 10
344.213671697682
 20
1019.809985791042
1001
PE_URL
1000

  0
LWPOLYLINE
  5
19F293
330
1F
100
AcDbEntity
  8
109_1_keramische_tegels_λ_1.3
100
AcDbPolyline
 90
        3
 70
     0
 43
0.0
 10
352.7447376022465
 20
1028.341051695635
 10
573.4077536152908
 20
849.6482679235922
 42
-0.4158631946149464
 10
575.5329440946225
 20
828.4360057757876
  0
LWPOLYLINE
  5
19F294
330
1F
100
AcDbEntity
  8
Arcering
100
AcDbPolyline
 90
        8
 70
     1
 43
0.0
 10
539.1604614412062
 20
432.5179599921975
 10
712.4016228318214
 20
605.7591213829873
 10
723.0082245496159
 20
595.1525196651927
 10
549.7670631589135
 20
421.9113582744903
 10
539.1604614412062
 20
432.5179599921975
 10
723.0082245496159
 20
595.1525196651927
 10
712.4016228318214
 20
605.7591213829873
 10
549.7670631589135
 20
421.9113582744903
1001
PE_URL
1000

  0
LWPOLYLINE
  5
19F295
330
1F
100
AcDbEntity
  8
Arcering
100
AcDbPolyline
 90
        4
 70
     1
 43
0.0
 10
558.9594513144402
 20
405.6479023073043
 10
720.1797974059009
 20
566.868248398765
 10
707.45187534453
 20
579.5961704601068
 10
546.2315292530693
 20
418.3758243686752
1001
PE_URL
1000

  0
LWPOLYLINE
  5
19F296
330
1F
100
AcDbEntity
  8
011_1_multiplex_0.17
100
AcDbPolyline
 90
        4
 70
     1
 43
0.0
 10
188.1604614412936
 20
613.9271229206933
 10
176.1604614412936
 20
613.9271229206933
 10
176.1604614412062
 20
795.5179599921684
 10
188.1604614412063
 20
783.5179599921684
1001
PE_URL
1000

  0
LWPOLYLINE
  5
19F297
330
1F
100
AcDbEntity
  8
Arcering
 62
    30
420
 16737792
100
AcDbPolyline
 90
        8
 70
     0
 43
0.0
 10
213.8323740292399
 20
889.4286881226289
 10
212.0263788826123
 20
882.6886224771733
 10
363.7146686271299
 20
923.3333772154583
 10
323.0699138888158
 20
771.6450874709699
 10
474.7582036333041
 20
812.2898422092839
 10
434.1134488950192
 20
660.6015524647664
 10
585.8017386395077
 20
701.2463072030804
 10
575.9394084456726
 20
664.4395898385846
  0
LWPOLYLINE
  5
19F298
330
1F
100
AcDbEntity
  8
Arcering
 62
    30
420
 16737792
100
AcDbPolyline
 90
        2
 70
     0
 43
0.0
 10
660.0385562812735
 20
580.3404420030419
 10
696.8452736457402
 20
590.202772196877
  0
LWPOLYLINE
  5
19F299
330
1F
100
AcDbEntity
  8
Hulplijn
370
    -3
100
AcDbPolyline
 90
        4
 70
     1
 43
0.0
 10
0.0066990167542826
 20
-0.0046852157101966
 10
1050.006699016754
 20
-0.0046852157101966
 10
1050.006699016754
 20
1484.995314784289
 10
0.0066990167542826
 20
1484.995314784289
  0
MTEXT
  5
19F29A
102
{ACAD_XDICTIONARY
360
19F29B
102
}
330
1F
100
AcDbEntity
  8
Tekst
100
AcDbMText
 10
50.00669901675428
 20
144.9953147842898
 30
0.0
 40
10.0
 41
670.0
 46
12.86433333333333
 71
     1
 72
     5
  3
IsoBouw Systems bv  {\fCalibri|b0|i0|c0|p34;●  Postbus 1  ●  5710 AA Someren ●  Tel.: +31 (0)493 - 49 81 11\PFax: +31 (0)493 - 49 59 71  ●  E-mail: info@isobouw.nl\H1.38159x; \H0.72381x;\P\H1.16285x; \H0.85995x;\P\fCalibri|b1|i0|c0|p34;\H1.25x;www.is
  1
obouw.nl\fCalibri|b0|i0|c0|p34; \fArial|b0|i0|c0|p34; } {\H1.53418x; }
 73
     1
 44
1.0
1001
ACAD
1000
ACAD_MTEXT_DEFINED_HEIGHT_BEGIN
1070
    46
1040
12.86433333333333
1000
ACAD_MTEXT_DEFINED_HEIGHT_END
  0
LINE
  5
19F29C
330
1F
100
AcDbEntity
  8
0
 62
    30
420
 16737792
370
    70
100
AcDbLine
 10
1000.006699016754
 20
154.9953147842898
 30
0.0
 11
50.00669901675428
 21
154.9953147842898
 31
0.0
  0
LINE
  5
19F29D
330
1F
100
AcDbEntity
  8
0
 62
    30
420
 16737792
370
    70
100
AcDbLine
 10
1000.006699016754
 20
1259.99531478429
 30
0.0
 11
50.00669901675428
 21
1259.99531478429
 31
0.0
  0
MTEXT
  5
19F29E
102
{ACAD_XDICTIONARY
360
19F29F
102
}
330
1F
100
AcDbEntity
  8
Tekst
100
AcDbMText
 10
50.00669901675428
 20
1304.99531478429
 30
0.0
 40
15.0
 41
955.5985262747272
 46
24.9999
 71
     1
 72
     5
  1
\A1;{\fArial|b1|i0|c0|p34;\H1.66666x;SlimFix\fCalibri|b0|i0|c0|p34;®\fArial|b1|i0|c0|p34; Reno\H0.42x;\STwin^ ;\H0.95238x; \H2.5x;Avi-nestkast}
 73
     1
 44
1.0
1001
ACAD
1000
ACAD_MTEXT_DEFINED_HEIGHT_BEGIN
1070
    46
1040
24.9999
1000
ACAD_MTEXT_DEFINED_HEIGHT_END
  0
LWPOLYLINE
  5
19F2A0
330
1F
100
AcDbEntity
  8
Hulplijn
100
AcDbPolyline
 90
        6
 70
     0
 43
0.0
 10
50.00669901675428
 20
1307.49531478429
 10
50.00669901675428
 20
1302.49531478429
 10
50.00669901675428
 20
1304.99531478429
 10
52.50669901675428
 20
1304.99531478429
 10
50.00669901675428
 20
1304.99531478429
 10
47.50669901675428
 20
1304.99531478429
1001
PE_URL
1000

  0
LINE
  5
19F2A1
330
1F
100
AcDbEntity
  8
0
 62
    30
420
 16737792
370
    70
100
AcDbLine
 10
1000.006699016754
 20
1434.99531478429
 30
0.0
 11
50.00669901675428
 21
1434.99531478429
 31
0.0
  0
LWPOLYLINE
  5
19F2A2
330
1F
100
AcDbEntity
  8
Hulplijn
100
AcDbPolyline
 90
        6
 70
     0
 43
0.0
 10
50.00669901675428
 20
1377.49531478429
 10
50.00669901675428
 20
1372.49531478429
 10
50.00669901675428
 20
1374.99531478429
 10
52.50669901675428
 20
1374.99531478429
 10
50.00669901675428
 20
1374.99531478429
 10
47.50669901675428
 20
1374.99531478429
1001
PE_URL
1000

  0
LWPOLYLINE
  5
19F2A3
330
1F
100
AcDbEntity
  8
0
 62
    30
420
 16737792
370
    70
100
AcDbPolyline
 90
        2
 70
     0
 43
0.0
 10
619.957070918841
 20
1424.99531478429
 10
619.957070918841
 20
1269.99531478429
1001
PE_URL
1000

  0
LWPOLYLINE
  5
19F2A4
330
1F
100
AcDbEntity
  8
0
 62
    30
420
 16737792
370
    70
100
AcDbPolyline
 90
        2
 70
     0
 43
0.0
 10
799.957070918841
 20
1424.99531478429
 10
799.957070918841
 20
1269.99531478429
1001
PE_URL
1000

  0
LINE
  5
19F2A5
330
1F
100
AcDbEntity
  8
0
 62
    30
420
 16737792
370
    70
100
AcDbLine
 10
679.957070918841
 20
1269.99531478429
 30
0.0
 11
679.957070918841
 21
1284.99531478429
 31
0.0
1001
PE_URL
1000

  0
LINE
  5
19F2A6
330
1F
100
AcDbEntity
  8
0
 62
    30
420
 16737792
370
    70
100
AcDbLine
 10
739.957070918841
 20
1269.99531478429
 30
0.0
 11
739.957070918841
 21
1284.99531478429
 31
0.0
1001
PE_URL
1000

  0
MTEXT
  5
19F2A7
102
{ACAD_XDICTIONARY
360
19F2A8
102
}
330
1F
100
AcDbEntity
  8
Tekst
100
AcDbMText
 10
619.957070918841
 20
1284.995314784319
 30
0.0
 40
12.5
 41
60.0
 46
12.7125
 71
     1
 72
     5
  1
\pi19.16269;1:5
 73
     1
 44
1.0
1001
ACAD
1000
ACAD_MTEXT_DEFINED_HEIGHT_BEGIN
1070
    46
1040
12.7125
1000
ACAD_MTEXT_DEFINED_HEIGHT_END
  0
MTEXT
  5
19F2A9
102
{ACAD_XDICTIONARY
360
19F2AA
102
}
330
1F
100
AcDbEntity
  8
Tekst
100
AcDbMText
 10
679.957070918841
 20
1284.99531478429
 30
0.0
 40
12.5
 41
60.0
 46
2.5
 71
     1
 72
     5
  1
\pi19.7425;A4
 73
     1
 44
1.0
1001
ACAD
1000
ACAD_MTEXT_DEFINED_HEIGHT_BEGIN
1070
    46
1040
2.5
1000
ACAD_MTEXT_DEFINED_HEIGHT_END
  0
MTEXT
  5
19F2AB
102
{ACAD_XDICTIONARY
360
19F2AC
102
}
330
1F
100
AcDbEntity
  8
Tekst
100
AcDbMText
 10
739.957070918841
 20
1284.99531478429
 30
0.0
 40
12.5
 41
60.0
 46
12.7125
 71
     1
 72
     5
  1
\pi8.82418;V20.1
 73
     1
 44
1.0
1001
ACAD
1000
ACAD_MTEXT_DEFINED_HEIGHT_BEGIN
1070
    46
1040
12.7125
1000
ACAD_MTEXT_DEFINED_HEIGHT_END
  0
MTEXT
  5
19F2AD
102
{ACAD_XDICTIONARY
360
19F2AE
102
}
330
1F
100
AcDbEntity
  8
Tekst
100
AcDbMText
 10
629.4991510428663
 20
1374.995314784348
 30
0.0
 40
12.5
 41
160.0
 46
12.66999915000106
 71
     1
 72
     5
  1
{\H0.8x;- R\H0.75x;c\H1.33333x; dak ≥ 6.0 m²K/W}
 73
     1
 44
1.0
1001
PE_URL
1000

1001
ACAD
1000
ACAD_MTEXT_DEFINED_HEIGHT_BEGIN
1070
    46
1040
12.66999915000106
1000
ACAD_MTEXT_DEFINED_HEIGHT_END
  0
MTEXT
  5
19F2AF
330
1F
100
AcDbEntity
  8
Tekst
100
AcDbMText
 10
629.957070918841
 20
1424.995314784348
 30
0.0
 40
12.5
 41
160.0
 46
3.049999999999999
 71
     1
 72
     5
  1
{\fArial|b1|i0|c0|p0;\H0.8x;Detail gebaseerd op:}
 73
     1
 44
1.0
1001
PE_URL
1000

1001
ACAD
1000
ACAD_MTEXT_DEFINED_HEIGHT_BEGIN
1070
    46
1040
3.049999999999999
1000
ACAD_MTEXT_DEFINED_HEIGHT_END
  0
MTEXT
  5
19F2B0
330
1F
100
AcDbEntity
  8
Tekst
100
AcDbMText
 10
629.4991510428663
 20
1394.995314784348
 30
0.0
 40
12.5
 41
160.0
 46
12.6599996
 71
     1
 72
     5
  1
{\H0.8x;- R\H0.75x;c\H1.33333x; wand bestaand}
 73
     1
 44
1.0
1001
PE_URL
1000

1001
ACAD
1000
ACAD_MTEXT_DEFINED_HEIGHT_BEGIN
1070
    46
1040
12.6599996
1000
ACAD_MTEXT_DEFINED_HEIGHT_END
  0
IMAGE
  5
19F2B1
330
1F
100
AcDbEntity
  8
Tekst
160
               140
310
8C0000000100000084000000060000000500000000F3A77F154B87400090AAF2C5FA4F40000000000000000000F3A77F154B874054FD639ED95F63400000000000000000BCD5ADD291378E4054FD639ED95F63400000000000000000BCD5ADD291378E400090AAF2C5FA4F40000000000000000000F3A77F154B87400090AA
310
F2C5FA4F400000000000000000
100
AcDbRasterImage
 90
        0
 10
745.3854973908455
 20
63.95916589096305
 30
0.0
 11
0.1182287647965786
 21
0.0
 31
0.0
 12
0.0
 22
0.1182287647965786
 32
0.0
 13
1874.0
 23
770.0
340
8BD96
 70
     7
280
     0
281
    50
282
    50
283
     0
290
     0
360
19F2B2
 71
     1
 91
        2
 14
-0.5
 24
-0.5
 14
1873.5
 24
769.5
  0
LWPOLYLINE
  5
19F2B3
330
1F
100
AcDbEntity
  8
Arcering
 62
    30
420
 16737792
100
AcDbPolyline
 90
       21
 70
     0
 43
0.0
 10
191.8512843943899
 20
867.4475984877791
 10
200.8220601834764
 20
869.8513106159516
 10
185.879135647323
 20
814.0835570333875
 10
241.6468892298581
 20
829.0264815695699
 10
226.7039646937046
 20
773.2587279870058
 10
282.4717182762688
 20
788.2016525231883
 10
267.5287937401445
 20
732.4338989406242
 10
323.2965473226504
 20
747.3768234768067
 10
308.3536227865261
 20
691.6090698942426
 10
364.1213763690321
 20
706.551994430425
 10
349.1784518329368
 20
650.7842408478317
 10
404.9462054154719
 20
665.7271653840434
 10
390.0032808793476
 20
609.9594118014793
 10
445.7710344618535
 20
624.9023363376327
 10
430.8281099257292
 20
569.1345827550976
 10
486.5958635082352
 20
584.077507291222
 10
471.6529389721109
 20
528.3097537086578
 10
527.420692554675
 20
543.2526782448985
 10
512.4777680185506
 20
487.4849246623344
 10
568.2455216010566
 20
502.4278491984587
 10
553.3025970649323
 20
446.6600956159236
1001
PE_URL
1000

  0
INSERT
  5
19F2B4
330
1F
100
AcDbEntity
  8
0
100
AcDbBlockReference
  2
mus nest
 10
-10048.43980335616
 20
-1415.927197303361
 30
0.0
 41
0.0468
 42
0.0468
 43
0.0468
 50
331.616361526033
  0
LWPOLYLINE
  5
19F2B5
330
1F
100
AcDbEntity
  8
Arcering
100
AcDbPolyline
 90
        2
 70
     0
 43
0.0
 10
688.3599922714929
 20
535.048443264357
 10
675.632070210122
 20
547.7763653256988
  0
LWPOLYLINE
  5
19F2B6
330
1F
100
AcDbEntity
  8
Arcering
100
AcDbPolyline
 90
        2
 70
     0
 43
0.0
 10
663.6112549299723
 20
510.2997059228364
 10
650.8833328686014
 20
523.0276279841782
  0
LWPOLYLINE
  5
19F2B7
330
1F
100
AcDbEntity
  8
Arcering
 62
     2
370
     5
100
AcDbPolyline
 90
        2
 70
     0
 43
0.0
 10
359.2771222152514
 20
612.4012992181524
 42
0.3362069339930982
 10
369.9566687264887
 20
601.7217527069151
 42
0.0341955794268346
  0
LWPOLYLINE
  5
19F2B8
330
1F
100
AcDbEntity
  8
Arcering
 62
     2
370
     5
100
AcDbPolyline
 90
      101
 70
     0
 43
0.0
 10
406.3657553339144
 20
565.3126660994603
 42
-0.225975440609248
 10
396.6604614413227
 20
560.6903098116163
 42
-0.2192445941232251
 10
384.1604614412063
 20
566.9403098116163
 42
0.2111580866351839
 10
371.6604614412063
 20
572.0520491045317
 42
0.4142135623745867
 10
359.1604614412063
 20
559.5520491045317
 42
0.4142135623746668
 10
371.6604614412645
 20
547.0520491045317
 42
0.211158086635184
 10
384.1604614412063
 20
552.1637883974472
 42
-0.219244594121677
 10
396.6604614412063
 20
558.4137883974472
 42
-0.4142135623708448
 10
409.1604614412062
 20
545.9137883974472
 42
-0.4142135623707935
 10
396.6604614413227
 20
533.4137883974472
 42
-0.2192445941232251
 10
384.1604614412063
 20
539.6637883974472
 42
0.2111580866351839
 10
371.6604614412063
 20
544.7755276903627
 42
0.4142135623745867
 10
359.1604614412063
 20
532.2755276903627
 42
0.4142135623746668
 10
371.6604614412645
 20
519.7755276903627
 42
0.211158086635184
 10
384.1604614412063
 20
524.887266983278
 42
-0.219244594121677
 10
396.6604614412063
 20
531.137266983278
 42
-0.4142135623708448
 10
409.1604614412062
 20
518.637266983278
 42
-0.4142135623707935
 10
396.6604614413227
 20
506.137266983278
 42
-0.2192445941232251
 10
384.1604614412063
 20
512.387266983278
 42
0.2111580866351839
 10
371.6604614412063
 20
517.4990062761935
 42
0.4142135623745867
 10
359.1604614412063
 20
504.9990062761935
 42
0.4142135623746668
 10
371.6604614412645
 20
492.4990062761935
 42
0.211158086635184
 10
384.1604614412063
 20
497.610745569109
 42
-0.219244594121677
 10
396.6604614412063
 20
503.860745569109
 42
-0.4142135623708448
 10
409.1604614412062
 20
491.360745569109
 42
-0.4142135623707935
 10
396.6604614413227
 20
478.860745569109
 42
-0.2192445941232251
 10
384.1604614412063
 20
485.110745569109
 42
0.2111580866351839
 10
371.6604614412063
 20
490.2224848620244
 42
0.4142135623745867
 10
359.1604614412063
 20
477.7224848620244
 42
0.4142135623746668
 10
371.6604614412645
 20
465.2224848620244
 42
0.211158086635184
 10
384.1604614412063
 20
470.3342241549399
 42
-0.219244594121677
 10
396.6604614412063
 20
476.5842241549399
 42
-0.4142135623708448
 10
409.1604614412062
 20
464.0842241549399
 42
-0.4142135623707935
 10
396.6604614413227
 20
451.5842241549399
 42
-0.2192445941232251
 10
384.1604614412063
 20
457.8342241549399
 42
0.2111580866351839
 10
371.6604614412063
 20
462.9459634478553
 42
0.4142135623745867
 10
359.1604614412063
 20
450.4459634478553
 42
0.4142135623746668
 10
371.6604614412645
 20
437.9459634478553
 42
0.211158086635184
 10
384.1604614412063
 20
443.0577027407707
 42
-0.219244594121677
 10
396.6604614412063
 20
449.3077027407707
 42
-0.4142135623708448
 10
409.1604614412062
 20
436.8077027407707
 42
-0.4142135623707935
 10
396.6604614413227
 20
424.3077027407707
 42
-0.2192445941232251
 10
384.1604614412063
 20
430.5577027407707
 42
0.2111580866351839
 10
371.6604614412063
 20
435.6694420336862
 42
0.4142135623745867
 10
359.1604614412063
 20
423.1694420336862
 42
0.4142135623746668
 10
371.6604614412645
 20
410.6694420336862
 42
0.211158086635184
 10
384.1604614412063
 20
415.7811813266016
 42
-0.219244594121677
 10
396.6604614412063
 20
422.0311813266016
 42
-0.4142135623708448
 10
409.1604614412062
 20
409.5311813266016
 42
-0.4142135623707935
 10
396.6604614413227
 20
397.0311813266016
 42
-0.2192445941232251
 10
384.1604614412063
 20
403.2811813266016
 42
0.2111580866351839
 10
371.6604614412063
 20
408.392920619517
 42
0.4142135623745867
 10
359.1604614412063
 20
395.8929206195171
 42
0.4142135623746668
 10
371.6604614412645
 20
383.3929206195171
 42
0.211158086635184
 10
384.1604614412063
 20
388.5046599124326
 42
-0.219244594121677
 10
396.6604614412063
 20
394.7546599124326
 42
-0.4142135623708448
 10
409.1604614412062
 20
382.2546599124326
 42
-0.4142135623707935
 10
396.6604614413227
 20
369.7546599124326
 42
-0.2192445941232251
 10
384.1604614412063
 20
376.0046599124326
 42
0.2111580866351839
 10
371.6604614412063
 20
381.116399205348
 42
0.4142135623745867
 10
359.1604614412063
 20
368.616399205348
 42
0.4142135623746668
 10
371.6604614412645
 20
356.116399205348
 42
0.211158086635184
 10
384.1604614412063
 20
361.2281384982634
 42
-0.219244594121677
 10
396.6604614412063
 20
367.4781384982634
 42
-0.4142135623708448
 10
409.1604614412062
 20
354.9781384982634
 42
-0.4142135623707935
 10
396.6604614413227
 20
342.4781384982634
 42
-0.2192445941232251
 10
384.1604614412063
 20
348.7281384982634
 42
0.2111580866351839
 10
371.6604614412063
 20
353.8398777911789
 42
0.4142135623745867
 10
359.1604614412063
 20
341.3398777911789
 42
0.4142135623746668
 10
371.6604614412645
 20
328.8398777911789
 42
0.211158086635184
 10
384.1604614412063
 20
333.9516170840943
 42
-0.219244594121677
 10
396.6604614412063
 20
340.2016170840943
 42
-0.4142135623708448
 10
409.1604614412062
 20
327.7016170840943
 42
-0.4142135623707935
 10
396.6604614413227
 20
315.2016170840943
 42
-0.2192445941232251
 10
384.1604614412063
 20
321.4516170840943
 42
0.2111580866351839
 10
371.6604614412063
 20
326.5633563770098
 42
0.4142135623745867
 10
359.1604614412063
 20
314.0633563770098
 42
0.4142135623746668
 10
371.6604614412645
 20
301.5633563770098
 42
0.211158086635184
 10
384.1604614412063
 20
306.6750956699252
 42
-0.219244594121677
 10
396.6604614412063
 20
312.9250956699252
 42
-0.4142135623708448
 10
409.1604614412062
 20
300.4250956699252
 42
-0.4142135623707935
 10
396.6604614413227
 20
287.9250956699252
 42
-0.2192445941232251
 10
384.1604614412063
 20
294.1750956699252
 42
0.2111580866351839
 10
371.6604614412063
 20
299.2868349628407
 42
0.4142135623745867
 10
359.1604614412063
 20
286.7868349628407
 42
0.4142135623746668
 10
371.6604614412645
 20
274.2868349628407
 42
0.211158086635184
 10
384.1604614412063
 20
279.3985742557561
 42
-0.219244594121677
 10
396.6604614412063
 20
285.6485742557561
 42
-0.4142135623708448
 10
409.1604614412062
 20
273.1485742557561
 42
-0.4142135623707935
 10
396.6604614413227
 20
260.6485742557561
 42
-0.2192445941232251
 10
384.1604614412063
 20
266.8985742557561
 42
0.2111580866351839
 10
371.6604614412063
 20
272.0103135486716
 42
0.4142135623745867
 10
359.1604614412063
 20
259.5103135486716
 42
0.4142135623746668
 10
371.6604614412645
 20
247.0103135486716
 42
0.211158086635184
 10
384.1604614412063
 20
252.122052841587
 42
-0.219244594121677
 10
396.6604614412063
 20
258.372052841587
 42
-0.4142135623708448
 10
409.1604614412062
 20
245.872052841587
 42
-0.4142135623707935
 10
396.6604614413227
 20
233.372052841587
 42
-0.2192445941232251
 10
384.1604614412063
 20
239.622052841587
 42
0.2111580866351839
 10
371.6604614412063
 20
244.7337921345024
 42
0.4142135623745867
 10
359.1604614412063
 20
232.2337921345024
  0
LWPOLYLINE
  5
19F2B9
330
1F
100
AcDbEntity
  8
Arcering
 62
     2
370
     5
100
AcDbPolyline
 90
        6
 70
     0
 43
0.0
 10
372.3447001206514
 20
599.3337213127524
 42
0.0102432984203892
 10
371.6604614412063
 20
599.3285705187008
 42
0.4142135623745867
 10
359.1604614412063
 20
586.8285705187008
 42
0.4142135623746668
 10
371.6604614412645
 20
574.3285705187008
 42
0.211158086635184
 10
384.1604614412063
 20
579.4403098116163
 42
-0.0862996913816795
 10
388.4510855686676
 20
583.2273358647362
 42
-0.1304761964452088
  0
LWPOLYLINE
  5
19F2BA
330
1F
100
AcDbEntity
  8
Arcering
 62
     2
370
     5
100
AcDbPolyline
 90
        9
 70
     0
 43
0.0
 10
188.1604614412063
 20
639.9271229206934
 42
0.4142135623746668
 10
214.1479614412237
 20
665.9146229208272
 42
0.211158086635184
 10
203.5206554512261
 20
691.9021229206991
 42
-0.219244594121677
 10
190.5269054512318
 20
717.8896229206875
 42
-0.4142135623708448
 10
216.5144054512202
 20
743.8771229207049
 42
-0.4142135623707935
 10
242.5019054512377
 20
717.8896229208913
 42
-0.2192445941232251
 10
229.5081554512435
 20
691.9021229206991
 42
0.2111580866351839
 10
218.8808494612458
 20
665.9146229207108
 42
0.4142135623745867
 10
244.8683494612342
 20
639.9271229206934
  0
LWPOLYLINE
  5
19F2BB
330
1F
100
AcDbEntity
  8
Arcering
 62
     2
370
     5
100
AcDbPolyline
 90
        9
 70
     0
 43
0.0
 10
244.8683494612342
 20
639.9271229206934
 42
0.4142135623746668
 10
260.0762344612449
 20
655.1350079207914
 42
0.211158086635184
 10
253.8571349958947
 20
670.3428929206856
 42
-0.219244594121677
 10
246.2531924958748
 20
685.5507779206964
 42
-0.4142135623708448
 10
261.4610774958856
 20
700.7586629207362
 42
-0.4142135623707935
 10
276.6689624958963
 20
685.5507779208128
 42
-0.2192445941232251
 10
269.0650199959346
 20
670.3428929206856
 42
0.2111580866351839
 10
262.8459205305262
 20
655.1350079206749
 42
0.4142135623745867
 10
278.053805530566
 20
639.9271229206934
  0
LWPOLYLINE
  5
19F2BC
330
1F
100
AcDbEntity
  8
Arcering
 62
     2
370
     5
100
AcDbPolyline
 90
        9
 70
     0
 43
0.0
 10
278.053805530566
 20
639.9271229206934
 42
0.4142135623746668
 10
287.6347730805865
 20
649.5080904707428
 42
0.211158086635184
 10
283.7167404174106
 20
659.0890580207051
 42
-0.219244594121677
 10
278.9262566423858
 20
668.6700255706673
 42
-0.4142135623708448
 10
288.5072241923772
 20
678.2509931206877
 42
-0.4142135623707935
 10
298.0881917423976
 20
668.6700255707546
 42
-0.2192445941232251
 10
293.2977079674019
 20
659.0890580207051
 42
0.2111580866351839
 10
289.3796753042261
 20
649.5080904706846
 42
0.4142135623745867
 10
298.9606428542466
 20
639.9271229206934
  0
LWPOLYLINE
  5
19F2BD
330
1F
100
AcDbEntity
  8
Arcering
 62
     2
370
     5
100
AcDbPolyline
 90
        9
 70
     0
 43
0.0
 10
298.9606428542466
 20
639.9271229206934
 42
0.4142135623746668
 10
304.862518865033
 20
645.8289989315671
 42
0.211158086635184
 10
302.4490107445454
 20
651.7308749423246
 42
-0.219244594121677
 10
299.4980727391085
 20
657.6327509531111
 42
-0.4142135623708448
 10
305.399948749895
 20
663.5346269638976
 42
-0.4142135623707935
 10
311.3018247607106
 20
657.6327509531401
 42
-0.2192445941232251
 10
308.3508867553319
 20
651.7308749423246
 42
0.2111580866351839
 10
305.9373786348151
 20
645.828998931509
 42
0.4142135623745867
 10
311.8392546456307
 20
639.9271229206934
  0
LWPOLYLINE
  5
19F2BE
330
1F
100
AcDbEntity
  8
Arcering
 62
     2
370
     5
100
AcDbPolyline
 90
        9
 70
     0
 43
0.0
 10
311.8392546456307
 20
639.9271229206934
 42
0.4142135623746668
 10
315.3803802520851
 20
643.468248527206
 42
0.211158086635184
 10
313.9322753798042
 20
647.0093741336604
 42
-0.219244594121677
 10
312.1617125765479
 20
650.5504997401439
 42
-0.4142135623708448
 10
315.7028381830314
 20
654.0916253465984
 42
-0.4142135623707935
 10
319.243963789515
 20
650.5504997401439
 42
-0.2192445941232251
 10
317.4734009862878
 20
647.0093741336604
 42
0.2111580866351839
 10
316.0252961139777
 20
643.4682485271769
 42
0.4142135623745867
 10
319.5664217204612
 20
639.9271229206934
  0
INSERT
  5
19F2BF
330
1F
100
AcDbEntity
  8
0
100
AcDbBlockReference
  2
RenoGoot en RenoVogelvide V20.1 3D
 10
-195409.8265859441
 20
-144630.718525031
 30
0.0
 41
1.0773
 42
1.0773
 43
1.0773
  0
MTEXT
  5
19F2C0
102
{ACAD_XDICTIONARY
360
19F2C1
102
}
330
1F
100
AcDbEntity
  8
Tekst
100
AcDbMText
 10
475.4483726892503
 20
626.3376964823983
 30
0.0
 40
7.5
 41
173.4068977040514
 46
7.62749968124847
 71
     1
 72
     5
  1
\A2;{\fArial|b1|i0|c0|p34;SlimFix\fCalibri|b0|i0|c0|p34;®\fArial|b1|i0|c0|p34; Reno\H0.7x;\STwin^ ;\H0.95238x; \H1.5x;6.0}
 11
0.7071067811865476
 21
0.7071067811865476
 31
0.0
 73
     1
 44
1.0
1001
ACAD
1000
ACAD_MTEXT_DEFINED_HEIGHT_BEGIN
1070
    46
1040
7.62749968124847
1000
ACAD_MTEXT_DEFINED_HEIGHT_END
  0
INSERT
  5
19F2C2
330
1F
100
AcDbEntity
  8
0
100
AcDbBlockReference
  2
mus
 10
-224726.1517058044
 20
-38352.72568674226
 30
0.0
 50
330.5125902257562
  0
OLE2FRAME
  5
19F2C3
330
1F
100
AcDbEntity
  8
0
100
AcDbOle2Frame
 70
     2
  1
OLE
1001
ACAD
1000
OLEBEGIN
1070
    70
1070
     1
1070
    71
1070
     1
1070
    40
1040
0.0
1070
    41
1040
264.3624804128194
1070
    42
1040
174.1720861546055
1070
    72
1070
     0
1070
     3
1000

1070
    90
1071
        0
1070
    43
1040
0.0
1070
     4
1000

1070
    91
1071
        0
1070
    44
1040
0.0
1000
OLEEND
  0
MTEXT
  5
19F2C4
102
{ACAD_XDICTIONARY
360
19F2C5
102
}
330
1F
100
AcDbEntity
  8
Tekst
100
AcDbMText
 10
699.8615276035852
 20
364.9832203526457
 30
0.0
 40
12.5
 41
313.9266319677408
 46
159.575
 71
     1
 72
     5
  3
\A1;{\fArial|b1|i0|c0|p34;-} SlimFix{\fCalibri|b0|i0|c0|p34;®} Reno{\H0.42x;\STwin^ ;} dakelement\P{\fArial|b1|i0|c0|p34;-} SlimFix{\fCalibri|b0|i0|c0|p34;®} Reno{\H0.42x;\STwin^ ;\H2.38095x; Avi-nestkast}\P- houten lat\P- opening %%C35mm\P- aftimmerin
  1
g (geventileerd aanbrengen)
 73
     1
 44
1.0
1001
ACAD
1000
ACAD_MTEXT_DEFINED_HEIGHT_BEGIN
1070
    46
1040
159.575
1000
ACAD_MTEXT_DEFINED_HEIGHT_END
  0
LWPOLYLINE
  5
19F2C6
330
1F
100
AcDbEntity
  8
Tekst
100
AcDbPolyline
 90
        3
 70
     0
 43
0.0
 10
645.4289116607688
 20
610.5064358095988
 10
677.761925466184
 20
357.2368398595135
 10
698.0221720678964
 20
357.2368398595135
  0
INSERT
  5
19F2C7
330
1F
100
AcDbEntity
  8
0
100
AcDbBlockReference
  2
aanduidingspunt zwart
 10
-164091.3301522101
 20
-335219.9029850466
 30
0.0
 41
20.0
 42
20.0
 43
20.0
  0
INSERT
  5
19F2C8
330
1F
100
AcDbEntity
  8
0
100
AcDbBlockReference
  2
aanduidingspunt zwart
 10
-164087.9796807375
 20
-335246.1477564503
 30
0.0
 41
20.0
 42
20.0
 43
20.0
  0
INSERT
  5
19F2C9
330
1F
100
AcDbEntity
  8
0
100
AcDbBlockReference
  2
aanduidingspunt zwart
 10
-164081.6967551178
 20
-335295.3629036264
 30
0.0
 41
20.0
 42
20.0
 43
20.0
  0
INSERT
  5
19F2CA
330
1F
100
AcDbEntity
  8
0
100
AcDbBlockReference
  2
aanduidingspunt zwart
 10
-164080.1623944281
 20
-335307.381792872
 30
0.0
 41
20.0
 42
20.0
 43
20.0
  0
INSERT
  5
19F2CB
330
1F
100
AcDbEntity
  8
0
100
AcDbBlockReference
  2
aanduidingspunt zwart
 10
-164078.4923953451
 20
-335320.4631590428
 30
0.0
 41
20.0
 42
20.0
 43
20.0
  0
VIEWPORT
  5
8C46B
330
8C467
100
AcDbEntity
 67
     1
  8
0
100
AcDbViewport
 10
202.5
 20
128.5
 30
0.0
 40
441.0
 41
311.85
 68
     1
 69
     1
 12
202.5
 22
128.5
 13
0.0
 23
0.0
 14
0.5
 24
0.5
 15
0.0
 25
0.0
 16
0.0
 26
0.0
 36
1.0
 17
0.0
 27
0.0
 37
0.0
 42
50.0
 43
0.0
 44
0.0
 45
311.85
 50
0.0
 51
0.0
 72
   100
 90
   557152
  1

281
     0
 71
     1
 74
     0
110
0.0
120
0.0
130
0.0
111
1.0
121
0.0
131
0.0
112
0.0
122
1.0
132
0.0
 79
     0
146
0.0
170
     0
 61
     5
348
2F
292
     1
282
     1
141
0.0
142
0.0
361
8C46F
  0
VIEWPORT
  5
8C46C
102
{ACAD_XDICTIONARY
360
8C46D
102
}
330
8C467
100
AcDbEntity
 67
     1
  8
0
100
AcDbViewport
 10
202.5
 20
128.5
 30
0.0
 40
324.0
 41
205.6
 68
     2
 69
     2
 12
25762.25864195801
 22
14254.16674206406
 13
0.0
 23
0.0
 14
0.5
 24
0.5
 15
0.0
 25
0.0
 16
0.0
 26
0.0
 36
1.0
 17
0.0
 27
0.0
 37
0.0
 42
50.0
 43
0.0
 44
0.0
 45
16806.08666666667
 50
0.0
 51
0.0
 72
   100
 90
   557152
  1

281
     0
 71
     1
 74
     0
110
0.0
120
0.0
130
0.0
111
1.0
121
0.0
131
0.0
112
0.0
122
1.0
132
0.0
 79
     0
146
0.0
170
     0
 61
     5
348
2F
292
     1
282
     1
141
0.0
142
0.0
  0
ENDSEC
  0
SECTION
  2
OBJECTS
  0
DICTIONARY
  5
C
330
0
100
AcDbDictionary
281
     1
  3
ACAD_CIP_PREVIOUS_PRODUCT_INFO
350
196C40
  3
ACAD_COLOR
350
FB
  3
ACAD_DETAILVIEWSTYLE
350
B5
  3
ACAD_FIELDLIST
350
1591CE
  3
ACAD_GROUP
350
D
  3
ACAD_IMAGE_DICT
350
FA7
  3
ACAD_IMAGE_VARS
350
6A
  3
ACAD_LAYOUT
350
1A
  3
ACAD_MATERIAL
350
72
  3
ACAD_MLEADERSTYLE
350
3F
  3
ACAD_MLINESTYLE
350
17
  3
ACAD_PLOTSETTINGS
350
19
  3
ACAD_PLOTSTYLENAME
350
E
  3
ACAD_SCALELIST
350
40
  3
ACAD_SECTIONVIEWSTYLE
350
B6
  3
ACAD_TABLESTYLE
350
3B
  3
ACAD_VISUALSTYLE
350
2A
  3
AcadDim
350
172D3
  3
ACDB_RECOMPOSE_DATA
350
19F3F2
  3
AcDbVariableDictionary
350
3D
  3
AcStStandard
350
8CE83
  3
APPDATA
350
71
  3
CLOUDSETTINGS
350
6F5
  3
DimOffsetDictionary
350
D1
  3
UDSG
350
196C50
  0
SUN
  5
80
330
29
100
AcDbSun
 90
        1
290
     0
 63
     7
421
 16777215
 40
1.0
291
     1
 91
  2455826
 92
 54000000
292
     0
 70
     0
 71
   256
280
     1
  0
DICTIONARY
  5
BD
330
2
100
AcDbDictionary
280
     1
281
     1
  3
ACAD_LAYERSTATES
360
BE
  3
ACLYDICTIONARY
360
150AA5
  0
DICTIONARY
  5
C7
330
1F
100
AcDbDictionary
280
     1
281
     1
  3
ACAD_SORTENTS
360
C8
  0
DICTIONARY
  5
199023
330
18189D
100
AcDbDictionary
280
     1
281
     1
  0
DICTIONARY
  5
198FD4
330
181BB7
100
AcDbDictionary
280
     1
281
     1
  0
DICTIONARY
  5
19F250
330
19F24F
100
AcDbDictionary
280
     1
281
     1
  3
ACAD_MTEXT_2008_RT
360
19F3EA
  0
DICTIONARY
  5
19F259
330
19F258
100
AcDbDictionary
280
     1
281
     1
  0
DICTIONARY
  5
19F25B
330
19F25A
100
AcDbDictionary
280
     1
281
     1
  0
DICTIONARY
  5
19F25D
330
19F25C
100
AcDbDictionary
280
     1
281
     1
  0
DICTIONARY
  5
19F25F
330
19F25E
100
AcDbDictionary
280
     1
281
     1
  0
DICTIONARY
  5
19F29B
330
19F29A
100
AcDbDictionary
280
     1
281
     1
  3
ACAD_MTEXT_2008_RT
360
19F3EB
  0
DICTIONARY
  5
19F29F
330
19F29E
100
AcDbDictionary
280
     1
281
     1
  3
ACAD_MTEXT_2008_RT
360
19F3EC
  0
DICTIONARY
  5
19F2A8
330
19F2A7
100
AcDbDictionary
280
     1
281
     1
  3
ACAD_MTEXT_2008_RT
360
19F3ED
  0
DICTIONARY
  5
19F2AA
330
19F2A9
100
AcDbDictionary
280
     1
281
     1
  3
ACAD_MTEXT_2008_RT
360
19F3EE
  0
DICTIONARY
  5
19F2AC
330
19F2AB
100
AcDbDictionary
280
     1
281
     1
  3
ACAD_MTEXT_2008_RT
360
19F3EF
  0
DICTIONARY
  5
19F2AE
330
19F2AD
100
AcDbDictionary
280
     1
281
     1
  3
ACAD_MTEXT_2008_RT
360
19F3F0
  0
IMAGEDEF_REACTOR
  5
19F2B2
330
19F2B1
100
AcDbRasterImageDefReactor
 90
        2
330
19F2B1
  0
DICTIONARY
  5
19F2C1
330
19F2C0
100
AcDbDictionary
280
     1
281
     1
  3
ACAD_MTEXT_2008_RT
360
19F3F1
  0
DICTIONARY
  5
19F2C5
330
19F2C4
100
AcDbDictionary
280
     1
281
     1
  0
SUN
  5
8C46F
330
8C46B
100
AcDbSun
 90
        1
290
     0
 63
     7
421
 16777215
 40
1.0
291
     1
 91
  2455826
 92
 54000000
292
     0
 70
     0
 71
   256
280
     1
  0
DICTIONARY
  5
8C46D
330
8C46C
100
AcDbDictionary
280
     1
281
     1
  3
ASDK_XREC_ANNOTATION_SCALE_INFO
360
8C46E
  0
XRECORD
  5
196C40
102
{ACAD_REACTORS
330
C
102
}
330
C
100
AcDbXrecord
280
     1
300
ACD
300
2017
300
ACD_F_S
  0
DICTIONARY
  5
FB
102
{ACAD_REACTORS
330
C
102
}
330
C
100
AcDbDictionary
281
     1
  0
DICTIONARY
  5
B5
102
{ACAD_REACTORS
330
C
102
}
330
C
100
AcDbDictionary
281
     1
  3
Metric50
350
118015
  0
FIELDLIST
  5
1591CE
102
{ACAD_REACTORS
330
C
102
}
330
C
100
AcDbIdSet
 90
        6
330
1507A6
330
1507DF
330
150734
330
15076D
330
1506C2
330
1506FB
100
AcDbFieldList
  0
DICTIONARY
  5
D
102
{ACAD_REACTORS
330
C
102
}
330
C
100
AcDbDictionary
281
     1
  0
DICTIONARY
  5
FA7
102
{ACAD_REACTORS
330
C
102
}
330
C
100
AcDbDictionary
281
     1
  3
detail2elemmetdakv
350
158B86
  3
IsoBouw logo
350
FA8
  3
logo met payoff van website geplukt
350
8BD96
  0
RASTERVARIABLES
  5
6A
102
{ACAD_REACTORS
330
C
102
}
330
C
100
AcDbRasterVariables
 90
        0
 70
     0
 71
     1
 72
     1
  0
DICTIONARY
  5
1A
102
{ACAD_REACTORS
330
C
102
}
330
C
100
AcDbDictionary
281
     1
  3
Model
350
22
  3
Sheet1
350
8C468
  0
DICTIONARY
  5
72
102
{ACAD_REACTORS
330
C
102
}
330
C
100
AcDbDictionary
281
     1
  3
ByBlock
350
74
  3
ByLayer
350
73
  3
Global
350
75
  0
DICTIONARY
  5
3F
102
{ACAD_REACTORS
330
C
102
}
330
C
100
AcDbDictionary
281
     1
  3
Standard
350
B7
  0
DICTIONARY
  5
17
102
{ACAD_REACTORS
330
C
102
}
330
C
100
AcDbDictionary
281
     1
  3
Standard
350
18
  0
DICTIONARY
  5
19
102
{ACAD_REACTORS
330
C
102
}
330
C
100
AcDbDictionary
281
     1
  0
ACDBDICTIONARYWDFLT
  5
E
102
{ACAD_REACTORS
330
C
102
}
330
C
100
AcDbDictionary
281
     1
  3
Normal
350
F
100
AcDbDictionaryWithDefault
340
F
  0
DICTIONARY
  5
40
102
{ACAD_REACTORS
330
C
102
}
330
C
100
AcDbDictionary
281
     1
  3
*A1
350
FDED2
  3
*A2
350
1506A5
  3
A0
350
41
  3
A1
350
EF0
  3
A2
350
EF1
  3
A3
350
EF2
  3
A4
350
EF3
  3
A5
350
EF4
  3
A6
350
EF5
  3
A7
350
EF6
  3
A8
350
EF7
  3
A9
350
EF8
  3
B0
350
EF9
  3
B1
350
EFA
  3
B2
350
EFB
  3
B3
350
EFC
  3
B4
350
EFD
  3
B5
350
EFE
  3
B6
350
EFF
  3
B7
350
F00
  3
B8
350
F01
  3
B9
350
F02
  3
C0
350
F03
  3
C1
350
F04
  3
C2
350
F05
  3
C3
350
F06
  3
C4
350
F07
  3
C5
350
F08
  3
C6
350
F09
  3
C7
350
F0A
  3
C8
350
F0B
  3
C9
350
F0C
  3
D0
350
F0D
  3
D1
350
F0E
  3
D2
350
F0F
  3
D3
350
F10
  0
DICTIONARY
  5
B6
102
{ACAD_REACTORS
330
C
102
}
330
C
100
AcDbDictionary
281
     1
  3
Metric50
350
118014
  0
DICTIONARY
  5
3B
102
{ACAD_REACTORS
330
C
102
}
330
C
100
AcDbDictionary
281
     1
  3
Standard
350
3C
  0
DICTIONARY
  5
2A
102
{ACAD_REACTORS
330
C
102
}
330
C
100
AcDbDictionary
281
     1
  3
2dWireframe
350
2F
  3
3D Hidden
350
31
  3
3dWireframe
350
30
  3
Basic
350
32
  3
Brighten
350
36
  3
ColorChange
350
3A
  3
Conceptual
350
34
  3
Dim
350
35
  3
EdgeColorOff
350
7A
  3
Facepattern
350
39
  3
Flat
350
2B
  3
FlatWithEdges
350
2C
  3
Gouraud
350
2D
  3
GouraudWithEdges
350
2E
  3
Hidden
350
77
  3
JitterOff
350
78
  3
Linepattern
350
38
  3
OverhangOff
350
79
  3
Realistic
350
33
  3
Shaded
350
7F
  3
Shaded with edges
350
7E
  3
Shades of Gray
350
7B
  3
Sketchy
350
7C
  3
Thicken
350
37
  3
Wireframe
350
76
  3
X-Ray
350
7D
  0
XRECORD
  5
172D3
102
{ACAD_REACTORS
330
C
102
}
330
C
100
AcDbXrecord
280
     1
340
0
 72
     0
 71
     0
 70
     0
 69
     0
 68
     1
 67
     3
 66
     0
 65
     0
 64
     0
 63
     3
 62
     1
 61
     0
 60
     0
 40
0.0
  0
XRECORD
  5
19F3F2
102
{ACAD_REACTORS
330
C
102
}
330
C
100
AcDbXrecord
280
     1
 90
        1
330
3C
330
118014
330
118015
330
19F24F
330
19F29A
330
19F29E
330
19F2A7
330
19F2A9
330
19F2AB
330
19F2AD
330
19F2C0
  0
DICTIONARY
  5
3D
102
{ACAD_REACTORS
330
C
102
}
330
C
100
AcDbDictionary
281
     1
  3
CANNOSCALE
350
62
  3
CMLEADERSTYLE
350
BB
  3
CTABLESTYLE
350
3E
  3
CVIEWDETAILSTYLE
350
12A6ED
  3
CVIEWSECTIONSTYLE
350
12A6EE
  3
LIGHTSINBLOCKS
350
6F
  3
XCLIPFRAME
350
70
  0
DICTIONARY
  5
8CE83
102
{ACAD_REACTORS
330
C
102
}
330
C
100
AcDbDictionary
281
     1
  0
DICTIONARY
  5
71
102
{ACAD_REACTORS
330
C
102
}
330
C
100
AcDbDictionary
281
     1
  0
XRECORD
  5
6F5
102
{ACAD_REACTORS
330
C
102
}
330
C
100
AcDbXrecord
280
     1
 40
10.0
  0
DICTIONARY
  5
D1
102
{ACAD_REACTORS
330
C
102
}
330
C
100
AcDbDictionary
281
     1
  3
DIMRAILSENABLED
350
F1
  0
DICTIONARY
  5
196C50
102
{ACAD_REACTORS
330
C
102
}
330
C
100
AcDbDictionary
281
     1
  3
UDSGDACH
350
196C51
  0
DICTIONARY
  5
BE
102
{ACAD_REACTORS
330
BD
102
}
330
BD
100
AcDbDictionary
281
     1
  0
DICTIONARY
  5
150AA5
102
{ACAD_REACTORS
330
BD
102
}
330
BD
100
AcDbDictionary
281
     1
1001
ACAD
1000
<All
  0
SORTENTSTABLE
  5
C8
102
{ACAD_REACTORS
330
C7
102
}
330
C7
100
AcDbSortentsTable
330
1F
  0
XRECORD
  5
19F3EA
102
{ACAD_REACTORS
330
19F250
102
}
330
19F250
100
AcDbXrecord
280
     1
 40
80983.0
  1
{\pxsm1.15;\fArial|b1|i0|c0|p0;Dakvoet: mastgoot }
  0
XRECORD
  5
19F3EB
102
{ACAD_REACTORS
330
19F29B
102
}
330
19F29B
100
AcDbXrecord
280
     1
 40
7051390.0
  1
{\pxsm1.15;IsoBouw Systems bv  \fCalibri|b0|i0|c0|p0;●  Postbus 1  ●  5710 AA Someren ●  Tel.: +31 (0)493 - 49 81 11\PFax: +31 (0)493 - 49 59 71  ●  E-mail: info@isobouw.nl\P\P\fCalibri|b1|i0|c0|p0;\H1.25x;www.isobouw.nl\fCalibri|b0|i0|c0|p0; \fArial
  1
|b0|i0|c0|p0; \H0.8x; }
  0
XRECORD
  5
19F3EC
102
{ACAD_REACTORS
330
19F29F
102
}
330
19F29F
100
AcDbXrecord
280
     1
 40
861893.0
  1
\A1;\pxsm1.15;{\fArial|b1|i0|c0|p34;\H1.66666x;SlimFix\fCalibri|b0|i0|c0|p34;®\fArial|b1|i0|c0|p34; Reno\H0.42x;\STwin^ ;\H0.95238x; \H2.5x;Avi-nestkast}
  0
XRECORD
  5
19F3ED
102
{ACAD_REACTORS
330
19F2A8
102
}
330
19F2A8
100
AcDbXrecord
280
     1
 40
6732.0
  1
{\pxqc;1:5}
  0
XRECORD
  5
19F3EE
102
{ACAD_REACTORS
330
19F2AA
102
}
330
19F2AA
100
AcDbXrecord
280
     1
 40
5274.0
  1
{\pxqc;A4}
  0
XRECORD
  5
19F3EF
102
{ACAD_REACTORS
330
19F2AC
102
}
330
19F2AC
100
AcDbXrecord
280
     1
 40
7665.0
  1
{\pxqc;V20.1}
  0
XRECORD
  5
19F3F0
102
{ACAD_REACTORS
330
19F2AE
102
}
330
19F2AE
100
AcDbXrecord
280
     1
 40
407648.0
  1
{\pxsm1.15;\H0.799998x;- R\H0.75x;c\H1.33333x; dak ≥ 6.0 m²K/W}
  0
XRECORD
  5
19F3F1
102
{ACAD_REACTORS
330
19F2C1
102
}
330
19F2C1
100
AcDbXrecord
280
     1
 40
597249.0
  1
\A2;\pxsm1.15;{\fArial|b1|i0|c0|p34;Slim\H1x;Fix\fCalibri|b0|i0|c0|p34;®\fArial|b1|i0|c0|p34;\H1x; Reno\H0.7x;\STwin^ ;\H0.95238x; \H1.5x;6.0}
  0
XRECORD
  5
8C46E
102
{ACAD_REACTORS
330
8C46D
102
}
330
8C46D
100
AcDbXrecord
280
     1
 90
        1
340
41
  0
ACDBDETAILVIEWSTYLE
  5
118015
102
{ACAD_XDICTIONARY
360
12A6EA
102
}
102
{ACAD_REACTORS
330
B5
102
}
330
B5
100
AcDbModelDocViewStyle
 70
     0
  3
Metric50
290
     0
100
AcDbDetailViewStyle
 70
     0
 71
     0
 90
        3
 71
     1
340
11
 62
   256
 40
5.0
340
0
 62
   256
 40
5.0
300

 40
0.0
280
     1
 71
     2
340
16
 90
       25
 62
   256
 71
     3
340
11
 62
   256
 40
5.0
 90
        0
 40
15.0
 90
        1
300
%<\AcVar ViewDetailId>% (%<\AcVar ViewScale \f "%sn">%)
 71
     4
340
16
 90
       25
 62
   256
340
16
 90
       25
 62
   256
280
     0
  0
IMAGEDEF
  5
158B86
102
{ACAD_REACTORS
330
FA7
330
158B88
330
158B8F
330
158B91
102
}
330
FA7
100
AcDbRasterImageDef
 90
        0
  1
K:\DETAILS\Nederland\AG\2D Tekenwerk\Hulpmateriaal\I-Roof\detail2elemmetdakv.jpg
 10
1630.0
 20
903.0
 11
0.2646202699126753
 21
0.2646202699126753
280
     1
281
     3
  0
IMAGEDEF
  5
FA8
102
{ACAD_REACTORS
330
FA7
102
}
330
FA7
100
AcDbRasterImageDef
 90
        0
  1
C:\Users\ISOBAGRO\Desktop\IsoBouw logo.jpg
 10
1267.0
 20
509.0
 11
0.2646202699126753
 21
0.2646202699126753
280
     1
281
     3
  0
IMAGEDEF
  5
8BD96
102
{ACAD_REACTORS
330
FA7
330
8C118
330
8C26E
330
C11FE
330
C13A5
330
C7DBF
330
C7DDE
330
C90BE
330
C92C4
330
CC1B7
330
D1C66
330
D20E5
330
D271D
330
D290E
330
D30D1
330
EF1A7
330
EF212
330
F8A7A
330
F8B13
330
F8CEF
330
F98EE
330
F9F5F
330
FA05C
330
FA0C0
330
FA2AE
330
FA517
330
FB583
330
FE321
330
1018A0
330
101938
330
101D22
330
103CD3
330
103E9D
330
104027
330
104282
330
10551D
330
105AFE
330
105B01
330
105E65
330
10694D
330
1069E5
330
106A62
330
112934
330
11293A
330
11293F
330
112944
330
112949
330
11294E
330
14F168
330
14F17F
330
14F328
330
14F8A9
330
14FA41
330
14FBB6
330
14FD3D
330
14FEA7
330
150ABF
330
150BDB
330
150C43
330
1510D7
330
1563B7
330
15842C
330
158BA9
330
159100
330
159160
330
159187
330
1814B2
330
1816BF
330
18181B
330
181BED
330
181ECF
330
1820F7
330
19D393
330
19D41C
330
19D43F
330
19F04D
330
19F0D2
330
19F22E
330
19F2B2
102
}
330
FA7
100
AcDbRasterImageDef
 90
        0
  1
K:\ORG.PRO\logos\logo met payoff van website geplukt.jpg
 10
1874.0
 20
770.0
 11
0.3528581510232887
 21
0.3528581510232887
280
     1
281
     3
  0
LAYOUT
  5
22
102
{ACAD_REACTORS
330
1A
102
}
330
1A
100
AcDbPlotSettings
  1

  2
Bluebeam PDF
  4
User193
  6

 40
3.174999952316284
 41
3.174999952316284
 42
3.175003051757812
 43
3.17498779296875
 44
209.9733276367187
 45
297.0530090332031
 46
0.0
 47
1.360731082303175
 48
173349.6367239544
 49
144393.7500000007
140
174399.6367239544
141
145878.7500000007
142
1.0
143
5.156580180066783
 70
  3252
 72
     1
 73
     0
 74
     4
  7
PDF A4.ctb
 75
     0
147
0.193926975840614
 76
     0
 77
     2
 78
   300
148
-173349.6367239544
149
-144393.7500000007
100
AcDbLayout
  1
Model
 70
     1
 71
     0
 10
0.0
 20
0.0
 11
420.0
 21
297.0
 12
0.0
 22
0.0
 32
0.0
 14
-2514.771477326227
 24
0.0
 34
-424.6959999999963
 15
650000.0
 25
165170.0000000009
 35
500.0000000000005
146
0.0
 13
0.0
 23
0.0
 33
0.0
 16
1.0
 26
0.0
 36
0.0
 17
0.0
 27
1.0
 37
0.0
 76
     0
330
1F
331
29
1001
ACAD_PSEXT
1000
Bluebeam PDF
1000
BluebeamPSDriver
1000
BLUEBEAMPDFPORT
1000

1070
     0
  0
LAYOUT
  5
8C468
102
{ACAD_REACTORS
330
1A
102
}
330
1A
100
AcDbPlotSettings
  1

  2
none_device
  4
ISO_A3_(420.00_x_297.00_MM)
  6

 40
7.5
 41
20.0
 42
7.5
 43
20.0
 44
420.0
 45
297.0
 46
0.0
 47
0.0
 48
0.0
 49
0.0
140
0.0
141
0.0
142
1.0
143
1.0
 70
   688
 72
     1
 73
     0
 74
     5
  7
C:\Users\ISOBRBOO\appdata\roaming\autodesk\autocad 2017\r21.0\enu\plotters\plot styles\PDF A4.ctb
 75
    16
147
1.0
 76
     0
 77
     2
 78
   300
148
0.0
149
0.0
100
AcDbLayout
  1
Sheet1
 70
     1
 71
     1
 10
0.0
 20
0.0
 11
0.0
 21
0.0
 12
0.0
 22
0.0
 32
0.0
 14
40.49999999999999
 24
25.69999999999999
 34
0.0
 15
364.5
 25
231.3
 35
0.0
146
0.0
 13
0.0
 23
0.0
 33
0.0
 16
1.0
 26
0.0
 36
0.0
 17
0.0
 27
1.0
 37
0.0
 76
     0
330
8C467
331
8C46B
  0
MATERIAL
  5
74
102
{ACAD_REACTORS
330
72
102
}
330
72
100
AcDbMaterial
  1
ByBlock
 73
     1
 78
     1
172
     1
176
     1
270
     1
274
     1
  0
MATERIAL
  5
73
102
{ACAD_REACTORS
330
72
102
}
330
72
100
AcDbMaterial
  1
ByLayer
 73
     1
 78
     1
172
     1
176
     1
270
     1
274
     1
  0
MATERIAL
  5
75
102
{ACAD_XDICTIONARY
360
1986DA
102
}
102
{ACAD_REACTORS
330
72
102
}
330
72
100
AcDbMaterial
  1
Global
 73
     1
 78
     1
172
     1
176
     1
270
     1
274
     1
  0
MLEADERSTYLE
  5
B7
102
{ACAD_REACTORS
330
3F
102
}
330
3F
100
AcDbMLeaderStyle
179
     2
170
     2
171
     1
172
     0
 90
        2
 40
0.0
 41
0.0
173
     1
 91
-1056964608
340
14
 92
       -2
290
     1
 42
2.0
291
     1
 43
8.0
  3
Standard
 44
4.0
300

342
11
174
     1
178
     6
175
     1
176
     0
 93
-1056964608
 45
4.0
292
     0
297
     0
 46
4.0
 94
-1056964608
 47
1.0
 49
1.0
140
1.0
293
     1
141
0.0
294
     1
177
     0
142
1.0
295
     0
296
     0
143
3.75
271
     0
272
     9
273
     9
298
     0
  0
MLINESTYLE
  5
18
102
{ACAD_REACTORS
330
17
102
}
330
17
100
AcDbMlineStyle
  2
STANDARD
 70
     0
  3

 62
   256
 51
90.0
 52
90.0
 71
     2
 49
0.5
 62
   256
  6
BYLAYER
 49
-0.5
 62
   256
  6
BYLAYER
  0
ACDBPLACEHOLDER
  5
F
102
{ACAD_REACTORS
330
E
102
}
330
E
  0
SCALE
  5
FDED2
102
{ACAD_REACTORS
330
40
102
}
330
40
100
AcDbScale
 70
     0
300
1:1_1
140
1.0
141
100.0
290
     0
  0
SCALE
  5
1506A5
102
{ACAD_REACTORS
330
40
102
}
330
40
100
AcDbScale
 70
     0
300
1:1_2
140
1.0
141
10.0
290
     0
  0
SCALE
  5
41
102
{ACAD_REACTORS
330
40
102
}
330
40
100
AcDbScale
 70
     0
300
1:1
140
1.0
141
1.0
290
     1
  0
SCALE
  5
EF0
102
{ACAD_REACTORS
330
40
102
}
330
40
100
AcDbScale
 70
     0
300
1:2
140
1.0
141
2.0
290
     0
  0
SCALE
  5
EF1
102
{ACAD_REACTORS
330
40
102
}
330
40
100
AcDbScale
 70
     0
300
1:4
140
1.0
141
4.0
290
     0
  0
SCALE
  5
EF2
102
{ACAD_REACTORS
330
40
102
}
330
40
100
AcDbScale
 70
     0
300
1:5
140
1.0
141
5.0
290
     0
  0
SCALE
  5
EF3
102
{ACAD_REACTORS
330
40
102
}
330
40
100
AcDbScale
 70
     0
300
scale_1
140
1.0
141
1.0
290
     0
  0
SCALE
  5
EF4
102
{ACAD_REACTORS
330
40
102
}
330
40
100
AcDbScale
 70
     0
300
1:8
140
1.0
141
8.0
290
     0
  0
SCALE
  5
EF5
102
{ACAD_REACTORS
330
40
102
}
330
40
100
AcDbScale
 70
     0
300
1:10
140
1.0
141
10.0
290
     0
  0
SCALE
  5
EF6
102
{ACAD_REACTORS
330
40
102
}
330
40
100
AcDbScale
 70
     0
300
1:16
140
1.0
141
16.0
290
     0
  0
SCALE
  5
EF7
102
{ACAD_REACTORS
330
40
102
}
330
40
100
AcDbScale
 70
     0
300
1:20
140
1.0
141
20.0
290
     0
  0
SCALE
  5
EF8
102
{ACAD_REACTORS
330
40
102
}
330
40
100
AcDbScale
 70
     0
300
1:30
140
1.0
141
30.0
290
     0
  0
SCALE
  5
EF9
102
{ACAD_REACTORS
330
40
102
}
330
40
100
AcDbScale
 70
     0
300
1:40
140
1.0
141
40.0
290
     0
  0
SCALE
  5
EFA
102
{ACAD_REACTORS
330
40
102
}
330
40
100
AcDbScale
 70
     0
300
1:50
140
1.0
141
50.0
290
     0
  0
SCALE
  5
EFB
102
{ACAD_REACTORS
330
40
102
}
330
40
100
AcDbScale
 70
     0
300
1:100
140
1.0
141
100.0
290
     0
  0
SCALE
  5
EFC
102
{ACAD_REACTORS
330
40
102
}
330
40
100
AcDbScale
 70
     0
300
2:1
140
2.0
141
1.0
290
     0
  0
SCALE
  5
EFD
102
{ACAD_REACTORS
330
40
102
}
330
40
100
AcDbScale
 70
     0
300
4:1
140
4.0
141
1.0
290
     0
  0
SCALE
  5
EFE
102
{ACAD_REACTORS
330
40
102
}
330
40
100
AcDbScale
 70
     0
300
8:1
140
8.0
141
1.0
290
     0
  0
SCALE
  5
EFF
102
{ACAD_REACTORS
330
40
102
}
330
40
100
AcDbScale
 70
     0
300
10:1
140
10.0
141
1.0
290
     0
  0
SCALE
  5
F00
102
{ACAD_REACTORS
330
40
102
}
330
40
100
AcDbScale
 70
     0
300
100:1
140
100.0
141
1.0
290
     0
  0
SCALE
  5
F01
102
{ACAD_REACTORS
330
40
102
}
330
40
100
AcDbScale
 70
     0
300
1/128" = 1'-0"
140
0.0078125
141
12.0
290
     0
  0
SCALE
  5
F02
102
{ACAD_REACTORS
330
40
102
}
330
40
100
AcDbScale
 70
     0
300
1/64" = 1'-0"
140
0.015625
141
12.0
290
     0
  0
SCALE
  5
F03
102
{ACAD_REACTORS
330
40
102
}
330
40
100
AcDbScale
 70
     0
300
1/32" = 1'-0"
140
0.03125
141
12.0
290
     0
  0
SCALE
  5
F04
102
{ACAD_REACTORS
330
40
102
}
330
40
100
AcDbScale
 70
     0
300
1/16" = 1'-0"
140
0.0625
141
12.0
290
     0
  0
SCALE
  5
F05
102
{ACAD_REACTORS
330
40
102
}
330
40
100
AcDbScale
 70
     0
300
3/32" = 1'-0"
140
0.09375
141
12.0
290
     0
  0
SCALE
  5
F06
102
{ACAD_REACTORS
330
40
102
}
330
40
100
AcDbScale
 70
     0
300
1/8" = 1'-0"
140
0.125
141
12.0
290
     0
  0
SCALE
  5
F07
102
{ACAD_REACTORS
330
40
102
}
330
40
100
AcDbScale
 70
     0
300
3/16" = 1'-0"
140
0.1875
141
12.0
290
     0
  0
SCALE
  5
F08
102
{ACAD_REACTORS
330
40
102
}
330
40
100
AcDbScale
 70
     0
300
1/4" = 1'-0"
140
0.25
141
12.0
290
     0
  0
SCALE
  5
F09
102
{ACAD_REACTORS
330
40
102
}
330
40
100
AcDbScale
 70
     0
300
3/8" = 1'-0"
140
0.375
141
12.0
290
     0
  0
SCALE
  5
F0A
102
{ACAD_REACTORS
330
40
102
}
330
40
100
AcDbScale
 70
     0
300
1/2" = 1'-0"
140
0.5
141
12.0
290
     0
  0
SCALE
  5
F0B
102
{ACAD_REACTORS
330
40
102
}
330
40
100
AcDbScale
 70
     0
300
3/4" = 1'-0"
140
0.75
141
12.0
290
     0
  0
SCALE
  5
F0C
102
{ACAD_REACTORS
330
40
102
}
330
40
100
AcDbScale
 70
     0
300
1" = 1'-0"
140
1.0
141
12.0
290
     0
  0
SCALE
  5
F0D
102
{ACAD_REACTORS
330
40
102
}
330
40
100
AcDbScale
 70
     0
300
1-1/2" = 1'-0"
140
1.5
141
12.0
290
     0
  0
SCALE
  5
F0E
102
{ACAD_REACTORS
330
40
102
}
330
40
100
AcDbScale
 70
     0
300
3" = 1'-0"
140
3.0
141
12.0
290
     0
  0
SCALE
  5
F0F
102
{ACAD_REACTORS
330
40
102
}
330
40
100
AcDbScale
 70
     0
300
6" = 1'-0"
140
6.0
141
12.0
290
     0
  0
SCALE
  5
F10
102
{ACAD_REACTORS
330
40
102
}
330
40
100
AcDbScale
 70
     0
300
1'-0" = 1'-0"
140
12.0
141
12.0
290
     0
  0
ACDBSECTIONVIEWSTYLE
  5
118014
102
{ACAD_XDICTIONARY
360
12A6E8
102
}
102
{ACAD_REACTORS
330
B6
102
}
330
B6
100
AcDbModelDocViewStyle
 70
     0
  3
Metric50
290
     0
100
AcDbSectionViewStyle
 70
     0
 71
     0
 90
      102
 71
     1
340
11
 62
   256
 40
5.0
340
0
340
0
 62
   256
 40
5.0
300
I, O, Q, S, X, Z
 40
10.0
 90
        0
 40
2.5
 90
        0
 71
     2
340
16
 90
       25
 62
   256
340
16
 90
       50
 62
   256
 40
5.0
 40
2.5
 40
5.0
 71
     3
340
11
 62
   256
 40
5.0
 90
        0
 40
15.0
 90
        1
300
%<\AcVar ViewSectionStartId>%-%<\AcVar ViewSectionEndId>% (%<\AcVar ViewScale \f "%sn">%)
 71
     4
 62
   256
 62
   257
300
ANSI31
 40
1.0
 90
        0
290
     0
290
     0
 90
        6
 40
0.0
 40
1.570796326794896
 40
0.2617993877991494
 40
1.308996938995747
 40
-0.2617993877991494
 40
1.832595714594046
  0
TABLESTYLE
  5
3C
102
{ACAD_XDICTIONARY
360
19F3E6
102
}
102
{ACAD_REACTORS
330
3B
102
}
330
3B
100
AcDbTableStyle
280
     0
  3
Standard
 70
     0
 71
     0
 40
1.5
 41
1.5
280
     0
281
     0
  7
Standard
140
4.5
170
     2
 62
     0
 63
     7
283
     0
 90
      512
 91
        0
  1

274
    -2
284
     1
 64
     0
275
    -2
285
     1
 65
     0
276
    -2
286
     1
 66
     0
277
    -2
287
     1
 67
     0
278
    -2
288
     1
 68
     0
279
    -2
289
     1
 69
     0
  7
Standard
140
6.0
170
     5
 62
     0
 63
     7
283
     0
 90
      512
 91
        0
  1

274
    -2
284
     1
 64
     0
275
    -2
285
     1
 65
     0
276
    -2
286
     1
 66
     0
277
    -2
287
     1
 67
     0
278
    -2
288
     1
 68
     0
279
    -2
289
     1
 69
     0
  7
Standard
140
4.5
170
     5
 62
     0
 63
     7
283
     0
 90
      512
 91
        0
  1

274
    -2
284
     1
 64
     0
275
    -2
285
     1
 65
     0
276
    -2
286
     1
 66
     0
277
    -2
287
     1
 67
     0
278
    -2
288
     1
 68
     0
279
    -2
289
     1
 69
     0
  0
VISUALSTYLE
  5
2F
102
{ACAD_REACTORS
330
2A
102
}
330
2A
100
AcDbVisualStyle
  2
2dWireframe
 70
     4
177
     3
291
     0
 70
    58
 90
        0
176
     1
 90
        2
176
     1
 90
        0
176
     1
 90
        0
176
     1
 40
0.6
176
     1
 40
30.0
176
     1
 62
     7
420
 16777215
176
     1
 90
        1
176
     1
 90
        4
176
     1
 62
     7
176
     1
 62
   257
176
     1
 90
        1
176
     1
 90
        1
176
     1
 40
1.0
176
     1
 90
        0
176
     1
 62
   257
176
     1
 40
1.0
176
     1
 90
        1
176
     1
 90
        6
176
     1
 90
        2
176
     1
 62
     7
176
     1
 90
        5
176
     1
 90
        0
176
     1
 90
        0
176
     1
290
     0
176
     1
 90
        1
176
     1
 40
0.0
176
     1
 90
        0
176
     1
290
     1
176
     1
290
     1
176
     1
290
     0
176
     1
290
     0
176
     1
290
     0
176
     1
290
     0
176
     1
290
     0
176
     1
290
     0
176
     1
290
     0
176
     1
 90
       50
176
     1
 40
0.0
176
     1
 40
1.0
176
     1
 90
        0
176
     1
 62
    18
420
        0
176
     1
 90
       50
176
     1
 90
        3
176
     1
 62
     5
420
      255
176
     1
290
     0
176
     1
 90
       50
176
     1
 90
       50
176
     1
 90
       50
176
     1
290
     0
176
     1
 90
       50
176
     1
 62
   256
176
     0
 40
1.0
176
     0
 90
        2
176
     1
  1
strokes_ogs.tif
176
     1
290
     0
176
     1
 40
1.0
176
     1
 40
1.0
176
     1
  0
VISUALSTYLE
  5
31
102
{ACAD_REACTORS
330
2A
102
}
330
2A
100
AcDbVisualStyle
  2
3D Hidden
 70
     6
177
     3
291
     0
 70
    58
 90
        1
176
     1
 90
        2
176
     1
 90
        2
176
     1
 90
        0
176
     1
 40
0.6
176
     1
 40
30.0
176
     1
 62
     7
420
 16777215
176
     1
 90
        2
176
     1
 90
        2
176
     1
 62
     7
176
     1
 62
   257
176
     1
 90
        2
176
     1
 90
        1
176
     1
 40
40.0
176
     1
 90
        0
176
     1
 62
   257
176
     1
 40
1.0
176
     1
 90
        1
176
     1
 90
        6
176
     1
 90
        2
176
     1
 62
     7
176
     1
 90
        3
176
     1
 90
        0
176
     1
 90
        0
176
     1
290
     0
176
     1
 90
        1
176
     1
 40
0.0
176
     1
 90
        0
176
     1
290
     0
176
     1
290
     1
176
     1
290
     1
176
     1
290
     0
176
     1
290
     0
176
     1
290
     0
176
     1
290
     0
176
     1
290
     0
176
     1
290
     0
176
     1
 90
       50
176
     1
 40
0.0
176
     1
 40
1.0
176
     1
 90
        0
176
     1
 62
    18
420
        0
176
     1
 90
       50
176
     1
 90
        3
176
     1
 62
     5
420
      255
176
     1
290
     0
176
     1
 90
       50
176
     1
 90
       50
176
     1
 90
       50
176
     1
290
     0
176
     1
 90
       50
176
     1
 62
   256
176
     0
 40
1.0
176
     0
 90
        2
176
     1
  1
strokes_ogs.tif
176
     1
290
     0
176
     1
 40
1.0
176
     1
 40
1.0
176
     1
  0
VISUALSTYLE
  5
30
102
{ACAD_REACTORS
330
2A
102
}
330
2A
100
AcDbVisualStyle
  2
3dWireframe
 70
     5
177
     3
291
     0
 70
    58
 90
        0
176
     1
 90
        2
176
     1
 90
        0
176
     1
 90
        0
176
     1
 40
0.6
176
     1
 40
30.0
176
     1
 62
     7
420
 16777215
176
     1
 90
        1
176
     1
 90
        4
176
     1
 62
     7
176
     1
 62
   257
176
     1
 90
        1
176
     1
 90
        1
176
     1
 40
1.0
176
     1
 90
        0
176
     1
 62
   257
176
     1
 40
1.0
176
     1
 90
        1
176
     1
 90
        6
176
     1
 90
        2
176
     1
 62
     7
176
     1
 90
        5
176
     1
 90
        0
176
     1
 90
        0
176
     1
290
     0
176
     1
 90
        1
176
     1
 40
0.0
176
     1
 90
        0
176
     1
290
     0
176
     1
290
     1
176
     1
290
     1
176
     1
290
     0
176
     1
290
     0
176
     1
290
     0
176
     1
290
     0
176
     1
290
     0
176
     1
290
     0
176
     1
 90
       50
176
     1
 40
0.0
176
     1
 40
1.0
176
     1
 90
        0
176
     1
 62
    18
420
        0
176
     1
 90
       50
176
     1
 90
        3
176
     1
 62
     5
420
      255
176
     1
290
     0
176
     1
 90
       50
176
     1
 90
       50
176
     1
 90
       50
176
     1
290
     0
176
     1
 90
       50
176
     1
 62
   256
176
     0
 40
1.0
176
     0
 90
        2
176
     1
  1
strokes_ogs.tif
176
     1
290
     0
176
     1
 40
1.0
176
     1
 40
1.0
176
     1
  0
VISUALSTYLE
  5
32
102
{ACAD_REACTORS
330
2A
102
}
330
2A
100
AcDbVisualStyle
  2
Basic
 70
     7
177
     3
291
     1
 70
    58
 90
        1
176
     1
 90
        0
176
     1
 90
        1
176
     1
 90
        0
176
     1
 40
0.6
176
     1
 40
30.0
176
     1
 62
     7
420
 16777215
176
     1
 90
        0
176
     1
 90
        4
176
     1
 62
     7
176
     1
 62
   257
176
     1
 90
        1
176
     1
 90
        1
176
     1
 40
1.0
176
     1
 90
        8
176
     1
 62
     7
176
     1
 40
1.0
176
     1
 90
        1
176
     1
 90
        6
176
     1
 90
        2
176
     1
 62
     7
176
     1
 90
        5
176
     1
 90
        0
176
     1
 90
        0
176
     1
290
     0
176
     1
 90
        1
176
     1
 40
0.0
176
     1
 90
        0
176
     1
290
     0
176
     1
290
     1
176
     1
290
     1
176
     1
290
     0
176
     1
290
     0
176
     1
290
     0
176
     1
290
     0
176
     1
290
     0
176
     1
290
     0
176
     1
 90
       50
176
     1
 40
0.0
176
     1
 40
1.0
176
     1
 90
        0
176
     1
 62
    18
420
        0
176
     1
 90
       50
176
     1
 90
        3
176
     1
 62
     5
420
      255
176
     1
290
     0
176
     1
 90
       50
176
     1
 90
       50
176
     1
 90
       50
176
     1
290
     0
176
     1
 90
       50
176
     1
 62
   256
176
     0
 40
1.0
176
     0
 90
        2
176
     1
  1
strokes_ogs.tif
176
     1
290
     0
176
     1
 40
1.0
176
     1
 40
1.0
176
     1
  0
VISUALSTYLE
  5
36
102
{ACAD_REACTORS
330
2A
102
}
330
2A
100
AcDbVisualStyle
  2
Brighten
 70
    12
177
     3
291
     1
 70
    58
 90
        2
176
     1
 90
        2
176
     1
 90
        0
176
     1
 90
        0
176
     1
 40
0.6
176
     1
 40
30.0
176
     1
 62
     7
420
 16777215
176
     1
 90
        1
176
     1
 90
        4
176
     1
 62
     7
176
     1
 62
   257
176
     1
 90
        1
176
     1
 90
        1
176
     1
 40
1.0
176
     1
 90
        8
176
     1
 62
     7
176
     1
 40
1.0
176
     1
 90
        1
176
     1
 90
        6
176
     1
 90
        2
176
     1
 62
     7
176
     1
 90
        5
176
     1
 90
        0
176
     1
 90
        0
176
     1
290
     0
176
     1
 90
        1
176
     1
 40
50.0
176
     1
 90
        0
176
     1
290
     0
176
     1
290
     1
176
     1
290
     1
176
     1
290
     0
176
     1
290
     0
176
     1
290
     0
176
     1
290
     0
176
     1
290
     0
176
     1
290
     0
176
     1
 90
       50
176
     1
 40
0.0
176
     1
 40
1.0
176
     1
 90
        0
176
     1
 62
    18
420
        0
176
     1
 90
       50
176
     1
 90
        3
176
     1
 62
     5
420
      255
176
     1
290
     0
176
     1
 90
       50
176
     1
 90
       50
176
     1
 90
       50
176
     1
290
     0
176
     1
 90
       50
176
     1
 62
   256
176
     0
 40
1.0
176
     0
 90
        2
176
     1
  1
strokes_ogs.tif
176
     1
290
     0
176
     1
 40
1.0
176
     1
 40
1.0
176
     1
  0
VISUALSTYLE
  5
3A
102
{ACAD_REACTORS
330
2A
102
}
330
2A
100
AcDbVisualStyle
  2
ColorChange
 70
    16
177
     3
291
     1
 70
    58
 90
        2
176
     1
 90
        2
176
     1
 90
        3
176
     1
 90
        0
176
     1
 40
0.6
176
     1
 40
30.0
176
     1
 62
     8
420
  8421504
176
     1
 90
        1
176
     1
 90
        4
176
     1
 62
     7
176
     1
 62
   257
176
     1
 90
        1
176
     1
 90
        1
176
     1
 40
1.0
176
     1
 90
        8
176
     1
 62
     8
420
  8421504
176
     1
 40
1.0
176
     1
 90
        1
176
     1
 90
        6
176
     1
 90
        2
176
     1
 62
     7
176
     1
 90
        5
176
     1
 90
        0
176
     1
 90
        0
176
     1
290
     0
176
     1
 90
        1
176
     1
 40
0.0
176
     1
 90
        0
176
     1
290
     0
176
     1
290
     1
176
     1
290
     1
176
     1
290
     0
176
     1
290
     0
176
     1
290
     0
176
     1
290
     0
176
     1
290
     0
176
     1
290
     0
176
     1
 90
       50
176
     1
 40
0.0
176
     1
 40
1.0
176
     1
 90
        0
176
     1
 62
    18
420
        0
176
     1
 90
       50
176
     1
 90
        3
176
     1
 62
     5
420
      255
176
     1
290
     0
176
     1
 90
       50
176
     1
 90
       50
176
     1
 90
       50
176
     1
290
     0
176
     1
 90
       50
176
     1
 62
   256
176
     0
 40
1.0
176
     0
 90
        2
176
     1
  1
strokes_ogs.tif
176
     1
290
     0
176
     1
 40
1.0
176
     1
 40
1.0
176
     1
  0
VISUALSTYLE
  5
34
102
{ACAD_REACTORS
330
2A
102
}
330
2A
100
AcDbVisualStyle
  2
Conceptual
 70
     9
177
     3
291
     0
 70
    58
 90
        3
176
     1
 90
        2
176
     1
 90
        0
176
     1
 90
        0
176
     1
 40
0.6
176
     1
 40
30.0
176
     1
 62
     7
420
 16777215
176
     1
 90
        2
176
     1
 90
        2
176
     1
 62
     7
176
     1
 62
   257
176
     1
 90
        1
176
     1
 90
        1
176
     1
 40
40.0
176
     1
 90
        8
176
     1
 62
     7
176
     1
 40
1.0
176
     1
 90
        1
176
     1
 90
        6
176
     1
 90
        2
176
     1
 62
     7
176
     1
 90
        3
176
     1
 90
        0
176
     1
 90
        0
176
     1
290
     0
176
     1
 90
        1
176
     1
 40
0.0
176
     1
 90
        0
176
     1
290
     0
176
     1
290
     1
176
     1
290
     1
176
     1
290
     0
176
     1
290
     0
176
     1
290
     0
176
     1
290
     0
176
     1
290
     0
176
     1
290
     0
176
     1
 90
       50
176
     1
 40
0.0
176
     1
 40
1.0
176
     1
 90
        0
176
     1
 62
    18
420
        0
176
     1
 90
       50
176
     1
 90
        3
176
     1
 62
     5
420
      255
176
     1
290
     0
176
     1
 90
       50
176
     1
 90
       50
176
     1
 90
       50
176
     1
290
     0
176
     1
 90
       50
176
     1
 62
   256
176
     0
 40
1.0
176
     0
 90
        2
176
     1
  1
strokes_ogs.tif
176
     1
290
     0
176
     1
 40
1.0
176
     1
 40
1.0
176
     1
  0
VISUALSTYLE
  5
35
102
{ACAD_REACTORS
330
2A
102
}
330
2A
100
AcDbVisualStyle
  2
Dim
 70
    11
177
     3
291
     1
 70
    58
 90
        2
176
     1
 90
        2
176
     1
 90
        0
176
     1
 90
        0
176
     1
 40
0.6
176
     1
 40
30.0
176
     1
 62
     7
420
 16777215
176
     1
 90
        1
176
     1
 90
        4
176
     1
 62
     7
176
     1
 62
   257
176
     1
 90
        1
176
     1
 90
        1
176
     1
 40
1.0
176
     1
 90
        8
176
     1
 62
     7
176
     1
 40
1.0
176
     1
 90
        1
176
     1
 90
        6
176
     1
 90
        2
176
     1
 62
     7
176
     1
 90
        5
176
     1
 90
        0
176
     1
 90
        0
176
     1
290
     0
176
     1
 90
        1
176
     1
 40
-50.0
176
     1
 90
        0
176
     1
290
     0
176
     1
290
     1
176
     1
290
     1
176
     1
290
     0
176
     1
290
     0
176
     1
290
     0
176
     1
290
     0
176
     1
290
     0
176
     1
290
     0
176
     1
 90
       50
176
     1
 40
0.0
176
     1
 40
1.0
176
     1
 90
        0
176
     1
 62
    18
420
        0
176
     1
 90
       50
176
     1
 90
        3
176
     1
 62
     5
420
      255
176
     1
290
     0
176
     1
 90
       50
176
     1
 90
       50
176
     1
 90
       50
176
     1
290
     0
176
     1
 90
       50
176
     1
 62
   256
176
     0
 40
1.0
176
     0
 90
        2
176
     1
  1
strokes_ogs.tif
176
     1
290
     0
176
     1
 40
1.0
176
     1
 40
1.0
176
     1
  0
VISUALSTYLE
  5
7A
102
{ACAD_REACTORS
330
2A
102
}
330
2A
100
AcDbVisualStyle
  2
EdgeColorOff
 70
    22
177
     3
291
     1
 70
    58
 90
        2
176
     0
 90
        2
176
     0
 90
        0
176
     0
 90
        0
176
     0
 40
0.6
176
     0
 40
30.0
176
     0
 62
     7
420
 16777215
176
     0
 90
        1
176
     0
 90
        4
176
     0
 62
     7
176
     0
 62
   257
176
     0
 90
        1
176
     0
 90
        1
176
     0
 40
1.0
176
     0
 90
        8
176
     2
 62
     7
176
     0
 40
1.0
176
     0
 90
        1
176
     0
 90
        6
176
     0
 90
        2
176
     0
 62
     7
176
     0
 90
        5
176
     0
 90
        0
176
     0
 90
        0
176
     0
290
     0
176
     0
 90
        1
176
     0
 40
0.0
176
     0
 90
        0
176
     0
290
     0
176
     0
290
     1
176
     0
290
     1
176
     0
290
     0
176
     0
290
     0
176
     0
290
     0
176
     0
290
     0
176
     0
290
     0
176
     0
290
     0
176
     0
 90
       50
176
     0
 40
0.0
176
     0
 40
1.0
176
     0
 90
        0
176
     0
 62
    18
420
        0
176
     0
 90
       50
176
     0
 90
        3
176
     0
 62
     5
420
      255
176
     0
290
     0
176
     0
 90
       50
176
     0
 90
       50
176
     0
 90
       50
176
     0
290
     0
176
     0
 90
       50
176
     0
 62
   256
176
     0
 40
1.0
176
     0
 90
        2
176
     0
  1
strokes_ogs.tif
176
     0
290
     0
176
     0
 40
1.0
176
     0
 40
1.0
176
     0
  0
VISUALSTYLE
  5
39
102
{ACAD_REACTORS
330
2A
102
}
330
2A
100
AcDbVisualStyle
  2
Facepattern
 70
    15
177
     3
291
     1
 70
    58
 90
        2
176
     1
 90
        2
176
     1
 90
        0
176
     1
 90
        0
176
     1
 40
0.6
176
     1
 40
30.0
176
     1
 62
     7
420
 16777215
176
     1
 90
        1
176
     1
 90
        4
176
     1
 62
     7
176
     1
 62
   257
176
     1
 90
        1
176
     1
 90
        1
176
     1
 40
1.0
176
     1
 90
        8
176
     1
 62
     7
176
     1
 40
1.0
176
     1
 90
        1
176
     1
 90
        6
176
     1
 90
        2
176
     1
 62
     7
176
     1
 90
        5
176
     1
 90
        0
176
     1
 90
        0
176
     1
290
     0
176
     1
 90
        1
176
     1
 40
0.0
176
     1
 90
        0
176
     1
290
     0
176
     1
290
     1
176
     1
290
     1
176
     1
290
     0
176
     1
290
     0
176
     1
290
     0
176
     1
290
     0
176
     1
290
     0
176
     1
290
     0
176
     1
 90
       50
176
     1
 40
0.0
176
     1
 40
1.0
176
     1
 90
        0
176
     1
 62
    18
420
        0
176
     1
 90
       50
176
     1
 90
        3
176
     1
 62
     5
420
      255
176
     1
290
     0
176
     1
 90
       50
176
     1
 90
       50
176
     1
 90
       50
176
     1
290
     0
176
     1
 90
       50
176
     1
 62
   256
176
     0
 40
1.0
176
     0
 90
        2
176
     1
  1
strokes_ogs.tif
176
     1
290
     0
176
     1
 40
1.0
176
     1
 40
1.0
176
     1
  0
VISUALSTYLE
  5
2B
102
{ACAD_REACTORS
330
2A
102
}
330
2A
100
AcDbVisualStyle
  2
Flat
 70
     0
177
     3
291
     1
 70
    58
 90
        2
176
     1
 90
        1
176
     1
 90
        1
176
     1
 90
        2
176
     1
 40
0.6
176
     1
 40
30.0
176
     1
 62
     7
420
 16777215
176
     1
 90
        0
176
     1
 90
        4
176
     1
 62
     7
176
     1
 62
   257
176
     1
 90
        1
176
     1
 90
        1
176
     1
 40
1.0
176
     1
 90
        8
176
     1
 62
     7
176
     1
 40
1.0
176
     1
 90
        1
176
     1
 90
        6
176
     1
 90
        2
176
     1
 62
     7
176
     1
 90
        5
176
     1
 90
        0
176
     1
 90
        0
176
     1
290
     0
176
     1
 90
       13
176
     1
 40
0.0
176
     1
 90
        0
176
     1
290
     0
176
     1
290
     1
176
     1
290
     1
176
     1
290
     0
176
     1
290
     0
176
     1
290
     0
176
     1
290
     0
176
     1
290
     0
176
     1
290
     0
176
     1
 90
       50
176
     1
 40
0.0
176
     1
 40
1.0
176
     1
 90
        0
176
     1
 62
    18
420
        0
176
     1
 90
       50
176
     1
 90
        3
176
     1
 62
     5
420
      255
176
     1
290
     0
176
     1
 90
       50
176
     1
 90
       50
176
     1
 90
       50
176
     1
290
     0
176
     1
 90
       50
176
     1
 62
   256
176
     0
 40
1.0
176
     0
 90
        2
176
     1
  1
strokes_ogs.tif
176
     1
290
     0
176
     1
 40
1.0
176
     1
 40
1.0
176
     1
  0
VISUALSTYLE
  5
2C
102
{ACAD_REACTORS
330
2A
102
}
330
2A
100
AcDbVisualStyle
  2
FlatWithEdges
 70
     1
177
     3
291
     1
 70
    58
 90
        2
176
     1
 90
        1
176
     1
 90
        1
176
     1
 90
        2
176
     1
 40
0.6
176
     1
 40
30.0
176
     1
 62
     7
420
 16777215
176
     1
 90
        1
176
     1
 90
        4
176
     1
 62
     7
176
     1
 62
   257
176
     1
 90
        1
176
     1
 90
        1
176
     1
 40
1.0
176
     1
 90
        0
176
     1
 62
   257
176
     1
 40
1.0
176
     1
 90
        1
176
     1
 90
        6
176
     1
 90
        2
176
     1
 62
     7
176
     1
 90
        5
176
     1
 90
        0
176
     1
 90
        0
176
     1
290
     0
176
     1
 90
       13
176
     1
 40
0.0
176
     1
 90
        0
176
     1
290
     0
176
     1
290
     1
176
     1
290
     1
176
     1
290
     0
176
     1
290
     0
176
     1
290
     0
176
     1
290
     0
176
     1
290
     0
176
     1
290
     0
176
     1
 90
       50
176
     1
 40
0.0
176
     1
 40
1.0
176
     1
 90
        0
176
     1
 62
    18
420
        0
176
     1
 90
       50
176
     1
 90
        3
176
     1
 62
     5
420
      255
176
     1
290
     0
176
     1
 90
       50
176
     1
 90
       50
176
     1
 90
       50
176
     1
290
     0
176
     1
 90
       50
176
     1
 62
   256
176
     0
 40
1.0
176
     0
 90
        2
176
     1
  1
strokes_ogs.tif
176
     1
290
     0
176
     1
 40
1.0
176
     1
 40
1.0
176
     1
  0
VISUALSTYLE
  5
2D
102
{ACAD_REACTORS
330
2A
102
}
330
2A
100
AcDbVisualStyle
  2
Gouraud
 70
     2
177
     3
291
     1
 70
    58
 90
        2
176
     1
 90
        2
176
     1
 90
        1
176
     1
 90
        2
176
     1
 40
0.6
176
     1
 40
30.0
176
     1
 62
     7
420
 16777215
176
     1
 90
        0
176
     1
 90
        4
176
     1
 62
     7
176
     1
 62
   257
176
     1
 90
        1
176
     1
 90
        1
176
     1
 40
1.0
176
     1
 90
        0
176
     1
 62
     7
176
     1
 40
1.0
176
     1
 90
        1
176
     1
 90
        6
176
     1
 90
        2
176
     1
 62
     7
176
     1
 90
        5
176
     1
 90
        0
176
     1
 90
        0
176
     1
290
     0
176
     1
 90
       13
176
     1
 40
0.0
176
     1
 90
        0
176
     1
290
     0
176
     1
290
     1
176
     1
290
     1
176
     1
290
     0
176
     1
290
     0
176
     1
290
     0
176
     1
290
     0
176
     1
290
     0
176
     1
290
     0
176
     1
 90
       50
176
     1
 40
0.0
176
     1
 40
1.0
176
     1
 90
        0
176
     1
 62
    18
420
        0
176
     1
 90
       50
176
     1
 90
        3
176
     1
 62
     5
420
      255
176
     1
290
     0
176
     1
 90
       50
176
     1
 90
       50
176
     1
 90
       50
176
     1
290
     0
176
     1
 90
       50
176
     1
 62
   256
176
     0
 40
1.0
176
     0
 90
        2
176
     1
  1
strokes_ogs.tif
176
     1
290
     0
176
     1
 40
1.0
176
     1
 40
1.0
176
     1
  0
VISUALSTYLE
  5
2E
102
{ACAD_REACTORS
330
2A
102
}
330
2A
100
AcDbVisualStyle
  2
GouraudWithEdges
 70
     3
177
     3
291
     1
 70
    58
 90
        2
176
     1
 90
        2
176
     1
 90
        1
176
     1
 90
        2
176
     1
 40
0.6
176
     1
 40
30.0
176
     1
 62
     7
420
 16777215
176
     1
 90
        1
176
     1
 90
        4
176
     1
 62
     7
176
     1
 62
   257
176
     1
 90
        1
176
     1
 90
        1
176
     1
 40
1.0
176
     1
 90
        0
176
     1
 62
   257
176
     1
 40
1.0
176
     1
 90
        1
176
     1
 90
        6
176
     1
 90
        2
176
     1
 62
     7
176
     1
 90
        5
176
     1
 90
        0
176
     1
 90
        0
176
     1
290
     0
176
     1
 90
       13
176
     1
 40
0.0
176
     1
 90
        0
176
     1
290
     0
176
     1
290
     1
176
     1
290
     1
176
     1
290
     0
176
     1
290
     0
176
     1
290
     0
176
     1
290
     0
176
     1
290
     0
176
     1
290
     0
176
     1
 90
       50
176
     1
 40
0.0
176
     1
 40
1.0
176
     1
 90
        0
176
     1
 62
    18
420
        0
176
     1
 90
       50
176
     1
 90
        3
176
     1
 62
     5
420
      255
176
     1
290
     0
176
     1
 90
       50
176
     1
 90
       50
176
     1
 90
       50
176
     1
290
     0
176
     1
 90
       50
176
     1
 62
   256
176
     0
 40
1.0
176
     0
 90
        2
176
     1
  1
strokes_ogs.tif
176
     1
290
     0
176
     1
 40
1.0
176
     1
 40
1.0
176
     1
  0
VISUALSTYLE
  5
77
102
{ACAD_REACTORS
330
2A
102
}
330
2A
100
AcDbVisualStyle
  2
Hidden
 70
     6
177
     3
291
     0
 70
    58
 90
        1
176
     1
 90
        2
176
     1
 90
        2
176
     1
 90
        0
176
     1
 40
0.6
176
     1
 40
30.0
176
     1
 62
     7
420
 16777215
176
     1
 90
        2
176
     1
 90
        2
176
     1
 62
     7
176
     1
 62
   257
176
     1
 90
        2
176
     1
 90
        1
176
     1
 40
40.0
176
     1
 90
        0
176
     1
 62
   257
176
     1
 40
1.0
176
     1
 90
        1
176
     1
 90
        6
176
     1
 90
        2
176
     1
 62
     7
176
     1
 90
        3
176
     1
 90
        0
176
     1
 90
        0
176
     1
290
     0
176
     1
 90
        1
176
     1
 40
0.0
176
     1
 90
        0
176
     1
290
     0
176
     1
290
     1
176
     1
290
     1
176
     1
290
     0
176
     1
290
     0
176
     1
290
     0
176
     1
290
     0
176
     1
290
     0
176
     1
290
     0
176
     1
 90
       50
176
     1
 40
0.0
176
     1
 40
1.0
176
     1
 90
        0
176
     1
 62
    18
420
        0
176
     1
 90
       50
176
     1
 90
        3
176
     1
 62
     5
420
      255
176
     1
290
     0
176
     1
 90
       50
176
     1
 90
       50
176
     1
 90
       50
176
     1
290
     0
176
     1
 90
       50
176
     1
 62
   256
176
     0
 40
1.0
176
     0
 90
        2
176
     1
  1
strokes_ogs.tif
176
     1
290
     0
176
     1
 40
1.0
176
     1
 40
1.0
176
     1
  0
VISUALSTYLE
  5
78
102
{ACAD_REACTORS
330
2A
102
}
330
2A
100
AcDbVisualStyle
  2
JitterOff
 70
    20
177
     3
291
     1
 70
    58
 90
        2
176
     0
 90
        2
176
     0
 90
        0
176
     0
 90
        0
176
     0
 40
0.6
176
     0
 40
30.0
176
     0
 62
     7
420
 16777215
176
     0
 90
        1
176
     0
 90
        4
176
     0
 62
     7
176
     0
 62
   257
176
     0
 90
        1
176
     0
 90
        1
176
     0
 40
1.0
176
     0
 90
       10
176
     2
 62
     7
176
     0
 40
1.0
176
     0
 90
        1
176
     0
 90
        6
176
     0
 90
        2
176
     0
 62
     7
176
     0
 90
        5
176
     0
 90
        0
176
     0
 90
        0
176
     0
290
     0
176
     0
 90
        1
176
     0
 40
0.0
176
     0
 90
        0
176
     0
290
     0
176
     0
290
     1
176
     0
290
     1
176
     0
290
     0
176
     0
290
     0
176
     0
290
     0
176
     0
290
     0
176
     0
290
     0
176
     0
290
     0
176
     0
 90
       50
176
     0
 40
0.0
176
     0
 40
1.0
176
     0
 90
        0
176
     0
 62
    18
420
        0
176
     0
 90
       50
176
     0
 90
        3
176
     0
 62
     5
420
      255
176
     0
290
     0
176
     0
 90
       50
176
     0
 90
       50
176
     0
 90
       50
176
     0
290
     0
176
     0
 90
       50
176
     0
 62
   256
176
     0
 40
1.0
176
     0
 90
        2
176
     0
  1
strokes_ogs.tif
176
     0
290
     0
176
     0
 40
1.0
176
     0
 40
1.0
176
     0
  0
VISUALSTYLE
  5
38
102
{ACAD_REACTORS
330
2A
102
}
330
2A
100
AcDbVisualStyle
  2
Linepattern
 70
    14
177
     3
291
     1
 70
    58
 90
        2
176
     1
 90
        2
176
     1
 90
        0
176
     1
 90
        0
176
     1
 40
0.6
176
     1
 40
30.0
176
     1
 62
     7
420
 16777215
176
     1
 90
        1
176
     1
 90
        4
176
     1
 62
     7
176
     1
 62
   257
176
     1
 90
        7
176
     1
 90
        7
176
     1
 40
1.0
176
     1
 90
        8
176
     1
 62
     7
176
     1
 40
1.0
176
     1
 90
        1
176
     1
 90
        6
176
     1
 90
        2
176
     1
 62
     7
176
     1
 90
        5
176
     1
 90
        0
176
     1
 90
        0
176
     1
290
     0
176
     1
 90
        1
176
     1
 40
0.0
176
     1
 90
        0
176
     1
290
     0
176
     1
290
     1
176
     1
290
     1
176
     1
290
     0
176
     1
290
     0
176
     1
290
     0
176
     1
290
     0
176
     1
290
     0
176
     1
290
     0
176
     1
 90
       50
176
     1
 40
0.0
176
     1
 40
1.0
176
     1
 90
        0
176
     1
 62
    18
420
        0
176
     1
 90
       50
176
     1
 90
        3
176
     1
 62
     5
420
      255
176
     1
290
     0
176
     1
 90
       50
176
     1
 90
       50
176
     1
 90
       50
176
     1
290
     0
176
     1
 90
       50
176
     1
 62
   256
176
     0
 40
1.0
176
     0
 90
        2
176
     1
  1
strokes_ogs.tif
176
     1
290
     0
176
     1
 40
1.0
176
     1
 40
1.0
176
     1
  0
VISUALSTYLE
  5
79
102
{ACAD_REACTORS
330
2A
102
}
330
2A
100
AcDbVisualStyle
  2
OverhangOff
 70
    21
177
     3
291
     1
 70
    58
 90
        2
176
     0
 90
        2
176
     0
 90
        0
176
     0
 90
        0
176
     0
 40
0.6
176
     0
 40
30.0
176
     0
 62
     7
420
 16777215
176
     0
 90
        1
176
     0
 90
        4
176
     0
 62
     7
176
     0
 62
   257
176
     0
 90
        1
176
     0
 90
        1
176
     0
 40
1.0
176
     0
 90
        9
176
     2
 62
     7
176
     0
 40
1.0
176
     0
 90
        1
176
     0
 90
        6
176
     0
 90
        2
176
     0
 62
     7
176
     0
 90
        5
176
     0
 90
        0
176
     0
 90
        0
176
     0
290
     0
176
     0
 90
        1
176
     0
 40
0.0
176
     0
 90
        0
176
     0
290
     0
176
     0
290
     1
176
     0
290
     1
176
     0
290
     0
176
     0
290
     0
176
     0
290
     0
176
     0
290
     0
176
     0
290
     0
176
     0
290
     0
176
     0
 90
       50
176
     0
 40
0.0
176
     0
 40
1.0
176
     0
 90
        0
176
     0
 62
    18
420
        0
176
     0
 90
       50
176
     0
 90
        3
176
     0
 62
     5
420
      255
176
     0
290
     0
176
     0
 90
       50
176
     0
 90
       50
176
     0
 90
       50
176
     0
290
     0
176
     0
 90
       50
176
     0
 62
   256
176
     0
 40
1.0
176
     0
 90
        2
176
     0
  1
strokes_ogs.tif
176
     0
290
     0
176
     0
 40
1.0
176
     0
 40
1.0
176
     0
  0
VISUALSTYLE
  5
33
102
{ACAD_REACTORS
330
2A
102
}
330
2A
100
AcDbVisualStyle
  2
Realistic
 70
     8
177
     3
291
     0
 70
    58
 90
        2
176
     1
 90
        2
176
     1
 90
        0
176
     1
 90
        0
176
     1
 40
0.6
176
     1
 40
30.0
176
     1
 62
     7
420
 16777215
176
     1
 90
        1
176
     1
 90
        0
176
     1
 62
     7
176
     1
 62
   257
176
     1
 90
        1
176
     1
 90
        1
176
     1
 40
1.0
176
     1
 90
        8
176
     1
 62
     8
420
  7895160
176
     1
 40
1.0
176
     1
 90
        1
176
     1
 90
        6
176
     1
 90
        2
176
     1
 62
     7
176
     1
 90
        5
176
     1
 90
        0
176
     1
 90
        0
176
     1
290
     0
176
     1
 90
       13
176
     1
 40
0.0
176
     1
 90
        0
176
     1
290
     0
176
     1
290
     1
176
     1
290
     1
176
     1
290
     0
176
     1
290
     0
176
     1
290
     0
176
     1
290
     0
176
     1
290
     0
176
     1
290
     0
176
     1
 90
       50
176
     1
 40
0.0
176
     1
 40
1.0
176
     1
 90
        0
176
     1
 62
    18
420
        0
176
     1
 90
       50
176
     1
 90
        3
176
     1
 62
     5
420
      255
176
     1
290
     0
176
     1
 90
       50
176
     1
 90
       50
176
     1
 90
       50
176
     1
290
     0
176
     1
 90
       50
176
     1
 62
   256
176
     0
 40
1.0
176
     0
 90
        2
176
     1
  1
strokes_ogs.tif
176
     1
290
     0
176
     1
 40
1.0
176
     1
 40
1.0
176
     1
  0
VISUALSTYLE
  5
7F
102
{ACAD_REACTORS
330
2A
102
}
330
2A
100
AcDbVisualStyle
  2
Shaded
 70
    27
177
     3
291
     0
 70
    58
 90
        2
176
     1
 90
        2
176
     1
 90
        1
176
     1
 90
        2
176
     1
 40
0.6
176
     1
 40
30.0
176
     1
 62
     7
420
 16777215
176
     1
 90
        0
176
     1
 90
        4
176
     1
 62
     7
176
     1
 62
   257
176
     1
 90
        1
176
     1
 90
        1
176
     1
 40
1.0
176
     1
 90
        8
176
     1
 62
   257
176
     1
 40
1.0
176
     1
 90
        1
176
     1
 90
        6
176
     1
 90
        2
176
     1
 62
     8
420
  7895160
176
     1
 90
        3
176
     1
 90
        0
176
     1
 90
        0
176
     1
290
     0
176
     1
 90
        5
176
     1
 40
0.0
176
     1
 90
        0
176
     1
290
     0
176
     1
290
     1
176
     1
290
     1
176
     1
290
     0
176
     1
290
     0
176
     1
290
     0
176
     1
290
     0
176
     1
290
     0
176
     1
290
     0
176
     1
 90
       50
176
     1
 40
0.0
176
     1
 40
1.0
176
     1
 90
        0
176
     1
 62
    18
420
        0
176
     1
 90
       50
176
     1
 90
        3
176
     1
 62
     5
420
      255
176
     1
290
     0
176
     1
 90
       50
176
     1
 90
       50
176
     1
 90
       50
176
     1
290
     0
176
     1
 90
       50
176
     1
 62
   256
176
     0
 40
1.0
176
     0
 90
        2
176
     1
  1
strokes_ogs.tif
176
     1
290
     0
176
     1
 40
1.0
176
     1
 40
1.0
176
     1
  0
VISUALSTYLE
  5
7E
102
{ACAD_REACTORS
330
2A
102
}
330
2A
100
AcDbVisualStyle
  2
Shaded with edges
 70
    26
177
     3
291
     0
 70
    58
 90
        2
176
     1
 90
        2
176
     1
 90
        1
176
     1
 90
        2
176
     1
 40
0.6
176
     1
 40
30.0
176
     1
 62
     7
420
 16777215
176
     1
 90
        1
176
     1
 90
        2
176
     1
 62
     7
176
     1
 62
   257
176
     1
 90
        2
176
     1
 90
        1
176
     1
 40
1.0
176
     1
 90
        8
176
     1
 62
   257
176
     1
 40
1.0
176
     1
 90
        1
176
     1
 90
        6
176
     1
 90
        2
176
     1
 62
     7
176
     1
 90
        3
176
     1
 90
        0
176
     1
 90
        0
176
     1
290
     0
176
     1
 90
        5
176
     1
 40
0.0
176
     1
 90
        0
176
     1
290
     0
176
     1
290
     1
176
     1
290
     1
176
     1
290
     0
176
     1
290
     0
176
     1
290
     0
176
     1
290
     0
176
     1
290
     0
176
     1
290
     0
176
     1
 90
       50
176
     1
 40
0.0
176
     1
 40
1.0
176
     1
 90
        0
176
     1
 62
    18
420
        0
176
     1
 90
       50
176
     1
 90
        3
176
     1
 62
     5
420
      255
176
     1
290
     0
176
     1
 90
       50
176
     1
 90
       50
176
     1
 90
       50
176
     1
290
     0
176
     1
 90
       50
176
     1
 62
   256
176
     0
 40
1.0
176
     0
 90
        2
176
     1
  1
strokes_ogs.tif
176
     1
290
     0
176
     1
 40
1.0
176
     1
 40
1.0
176
     1
  0
VISUALSTYLE
  5
7B
102
{ACAD_REACTORS
330
2A
102
}
330
2A
100
AcDbVisualStyle
  2
Shades of Gray
 70
    23
177
     3
291
     0
 70
    58
 90
        2
176
     1
 90
        2
176
     1
 90
        3
176
     1
 90
        0
176
     1
 40
0.6
176
     1
 40
30.0
176
     1
 62
     7
420
 16777215
176
     1
 90
        2
176
     1
 90
        2
176
     1
 62
     7
176
     1
 62
     7
176
     1
 90
        1
176
     1
 90
        1
176
     1
 40
40.0
176
     1
 90
        8
176
     1
 62
     7
176
     1
 40
1.0
176
     1
 90
        1
176
     1
 90
        6
176
     1
 90
        2
176
     1
 62
     7
176
     1
 90
        3
176
     1
 90
        0
176
     1
 90
        0
176
     1
290
     0
176
     1
 90
        1
176
     1
 40
0.0
176
     1
 90
        0
176
     1
290
     0
176
     1
290
     1
176
     1
290
     1
176
     1
290
     0
176
     1
290
     0
176
     1
290
     0
176
     1
290
     0
176
     1
290
     0
176
     1
290
     0
176
     1
 90
       50
176
     1
 40
0.0
176
     1
 40
1.0
176
     1
 90
        0
176
     1
 62
    18
420
        0
176
     1
 90
       50
176
     1
 90
        3
176
     1
 62
     5
420
      255
176
     1
290
     0
176
     1
 90
       50
176
     1
 90
       50
176
     1
 90
       50
176
     1
290
     0
176
     1
 90
       50
176
     1
 62
   256
176
     0
 40
1.0
176
     0
 90
        2
176
     1
  1
strokes_ogs.tif
176
     1
290
     0
176
     1
 40
1.0
176
     1
 40
1.0
176
     1
  0
VISUALSTYLE
  5
7C
102
{ACAD_REACTORS
330
2A
102
}
330
2A
100
AcDbVisualStyle
  2
Sketchy
 70
    24
177
     3
291
     0
 70
    58
 90
        1
176
     1
 90
        2
176
     1
 90
        2
176
     1
 90
        0
176
     1
 40
0.6
176
     1
 40
30.0
176
     1
 62
     7
420
 16777215
176
     1
 90
        2
176
     1
 90
        2
176
     1
 62
     7
176
     1
 62
     7
176
     1
 90
        1
176
     1
 90
        1
176
     1
 40
40.0
176
     1
 90
       11
176
     1
 62
     7
176
     1
 40
1.0
176
     1
 90
        1
176
     1
 90
        6
176
     1
 90
        2
176
     1
 62
     7
176
     1
 90
        6
176
     1
 90
        0
176
     1
 90
        0
176
     1
290
     0
176
     1
 90
        1
176
     1
 40
0.0
176
     1
 90
        0
176
     1
290
     0
176
     1
290
     1
176
     1
290
     1
176
     1
290
     0
176
     1
290
     0
176
     1
290
     0
176
     1
290
     0
176
     1
290
     0
176
     1
290
     0
176
     1
 90
       50
176
     1
 40
0.0
176
     1
 40
1.0
176
     1
 90
        0
176
     1
 62
    18
420
        0
176
     1
 90
       50
176
     1
 90
        3
176
     1
 62
     5
420
      255
176
     1
290
     0
176
     1
 90
       50
176
     1
 90
       50
176
     1
 90
       50
176
     1
290
     0
176
     1
 90
       50
176
     1
 62
   256
176
     0
 40
1.0
176
     0
 90
        2
176
     1
  1
strokes_ogs.tif
176
     1
290
     0
176
     1
 40
1.0
176
     1
 40
1.0
176
     1
  0
VISUALSTYLE
  5
37
102
{ACAD_REACTORS
330
2A
102
}
330
2A
100
AcDbVisualStyle
  2
Thicken
 70
    13
177
     3
291
     1
 70
    58
 90
        2
176
     1
 90
        2
176
     1
 90
        0
176
     1
 90
        0
176
     1
 40
0.6
176
     1
 40
30.0
176
     1
 62
     7
420
 16777215
176
     1
 90
        1
176
     1
 90
        4
176
     1
 62
     7
176
     1
 62
   257
176
     1
 90
        1
176
     1
 90
        1
176
     1
 40
1.0
176
     1
 90
       12
176
     1
 62
     7
176
     1
 40
1.0
176
     1
 90
        1
176
     1
 90
        6
176
     1
 90
        2
176
     1
 62
     7
176
     1
 90
        5
176
     1
 90
        0
176
     1
 90
        0
176
     1
290
     0
176
     1
 90
        1
176
     1
 40
0.0
176
     1
 90
        0
176
     1
290
     0
176
     1
290
     1
176
     1
290
     1
176
     1
290
     0
176
     1
290
     0
176
     1
290
     0
176
     1
290
     0
176
     1
290
     0
176
     1
290
     0
176
     1
 90
       50
176
     1
 40
0.0
176
     1
 40
1.0
176
     1
 90
        0
176
     1
 62
    18
420
        0
176
     1
 90
       50
176
     1
 90
        3
176
     1
 62
     5
420
      255
176
     1
290
     0
176
     1
 90
       50
176
     1
 90
       50
176
     1
 90
       50
176
     1
290
     0
176
     1
 90
       50
176
     1
 62
   256
176
     0
 40
1.0
176
     0
 90
        2
176
     1
  1
strokes_ogs.tif
176
     1
290
     0
176
     1
 40
1.0
176
     1
 40
1.0
176
     1
  0
VISUALSTYLE
  5
76
102
{ACAD_REACTORS
330
2A
102
}
330
2A
100
AcDbVisualStyle
  2
Wireframe
 70
     5
177
     3
291
     0
 70
    58
 90
        0
176
     1
 90
        2
176
     1
 90
        0
176
     1
 90
        0
176
     1
 40
0.6
176
     1
 40
30.0
176
     1
 62
     7
420
 16777215
176
     1
 90
        1
176
     1
 90
        4
176
     1
 62
     7
176
     1
 62
   257
176
     1
 90
        1
176
     1
 90
        1
176
     1
 40
1.0
176
     1
 90
        0
176
     1
 62
   257
176
     1
 40
1.0
176
     1
 90
        1
176
     1
 90
        6
176
     1
 90
        2
176
     1
 62
     7
176
     1
 90
        3
176
     1
 90
        0
176
     1
 90
        0
176
     1
290
     0
176
     1
 90
        1
176
     1
 40
0.0
176
     1
 90
        0
176
     1
290
     0
176
     1
290
     1
176
     1
290
     1
176
     1
290
     0
176
     1
290
     0
176
     1
290
     0
176
     1
290
     0
176
     1
290
     0
176
     1
290
     0
176
     1
 90
       50
176
     1
 40
0.0
176
     1
 40
1.0
176
     1
 90
        0
176
     1
 62
    18
420
        0
176
     1
 90
       50
176
     1
 90
        3
176
     1
 62
     5
420
      255
176
     1
290
     0
176
     1
 90
       50
176
     1
 90
       50
176
     1
 90
       50
176
     1
290
     0
176
     1
 90
       50
176
     1
 62
   256
176
     0
 40
1.0
176
     0
 90
        2
176
     1
  1
strokes_ogs.tif
176
     1
290
     0
176
     1
 40
1.0
176
     1
 40
1.0
176
     1
  0
VISUALSTYLE
  5
7D
102
{ACAD_REACTORS
330
2A
102
}
330
2A
100
AcDbVisualStyle
  2
X-Ray
 70
    25
177
     3
291
     0
 70
    58
 90
        2
176
     1
 90
        2
176
     1
 90
        1
176
     1
 90
        1
176
     1
 40
0.5
176
     1
 40
30.0
176
     1
 62
     7
420
 16777215
176
     1
 90
        1
176
     1
 90
        0
176
     1
 62
     7
176
     1
 62
   257
176
     1
 90
        1
176
     1
 90
        1
176
     1
 40
1.0
176
     1
 90
        8
176
     1
 62
     7
176
     1
 40
1.0
176
     1
 90
        1
176
     1
 90
        6
176
     1
 90
        2
176
     1
 62
     7
176
     1
 90
        3
176
     1
 90
        0
176
     1
 90
        0
176
     1
290
     0
176
     1
 90
       13
176
     1
 40
0.0
176
     1
 90
        0
176
     1
290
     0
176
     1
290
     1
176
     1
290
     1
176
     1
290
     0
176
     1
290
     0
176
     1
290
     0
176
     1
290
     0
176
     1
290
     0
176
     1
290
     0
176
     1
 90
       50
176
     1
 40
0.0
176
     1
 40
1.0
176
     1
 90
        0
176
     1
 62
    18
420
        0
176
     1
 90
       50
176
     1
 90
        3
176
     1
 62
     5
420
      255
176
     1
290
     0
176
     1
 90
       50
176
     1
 90
       50
176
     1
 90
       50
176
     1
290
     0
176
     1
 90
       50
176
     1
 62
   256
176
     0
 40
1.0
176
     0
 90
        2
176
     1
  1
strokes_ogs.tif
176
     1
290
     0
176
     1
 40
1.0
176
     1
 40
1.0
176
     1
  0
DICTIONARYVAR
  5
62
102
{ACAD_REACTORS
330
3D
102
}
330
3D
100
DictionaryVariables
280
     0
  1
1:1
  0
DICTIONARYVAR
  5
BB
102
{ACAD_REACTORS
330
3D
102
}
330
3D
100
DictionaryVariables
280
     0
  1
STANDARD
  0
DICTIONARYVAR
  5
3E
102
{ACAD_REACTORS
330
3D
102
}
330
3D
100
DictionaryVariables
280
     0
  1
STANDARD
  0
DICTIONARYVAR
  5
12A6ED
102
{ACAD_REACTORS
330
3D
102
}
330
3D
100
DictionaryVariables
280
     0
  1
Metric50
  0
DICTIONARYVAR
  5
12A6EE
102
{ACAD_REACTORS
330
3D
102
}
330
3D
100
DictionaryVariables
280
     0
  1
Metric50
  0
DICTIONARYVAR
  5
6F
102
{ACAD_REACTORS
330
3D
102
}
330
3D
100
DictionaryVariables
280
     0
  1
0
  0
DICTIONARYVAR
  5
70
102
{ACAD_REACTORS
330
3D
102
}
330
3D
100
DictionaryVariables
280
     0
  1
0
  0
DICTIONARYVAR
  5
F1
102
{ACAD_REACTORS
330
D1
102
}
330
D1
100
DictionaryVariables
280
     0
  1
1
  0
DICTIONARY
  5
196C51
102
{ACAD_REACTORS
330
196C50
102
}
330
196C50
100
AcDbDictionary
281
     1
  0
DICTIONARY
  5
12A6EA
330
118015
100
AcDbDictionary
280
     1
281
     1
  3
ACAD_XREC_ROUNDTRIP
360
19F3E9
  0
DICTIONARY
  5
1986DA
330
75
100
AcDbDictionary
280
     1
281
     1
  3
FBXASSET
360
1986DB
  0
DICTIONARY
  5
12A6E8
330
118014
100
AcDbDictionary
280
     1
281
     1
  3
ACAD_XREC_ROUNDTRIP
360
19F3E8
  0
DICTIONARY
  5
19F3E6
330
3C
100
AcDbDictionary
280
     1
281
     1
  3
ACAD_ROUNDTRIP_2008_TABLESTYLE_CELLSTYLEMAP
360
19F3E7
  0
XRECORD
  5
19F3E9
102
{ACAD_REACTORS
330
12A6EA
102
}
330
12A6EA
100
AcDbXrecord
280
     1
102
DISPLAYNAME
  1
Metric50
102
FLAGS
 90
        0
  0
XRECORD
  5
1986DB
102
{ACAD_REACTORS
330
1986DA
102
}
330
1986DA
100
AcDbXrecord
280
     1
 70
     1
 90
-1625056298
 71
     1
  1
C8DC6C01-A085-49B9-8B9F-57CE0CE8D3FC
311
504B0304140006080800897D9850E83C69F713010000A80100004F00000039314136333543442D304136312D343543462D394538422D3334333542433635354531432F4173736574446174612F446566696E6974696F6E4974657261746F7250726F706572746965732E62696E7550CD4EC3300C0E1C8A382081C40370E01A
311
D2343F6D9110B449CB890B3C00CA4AD82A65EDB4B4E2BA230FC593F032C319459A4058FA6CE7B3637FF23B42683B19A4E800B0017F02F1DE7676DD364FCDC22E0D8A02E3FA9971979031C5399509C52CE129E6A9487151528A135D4A51C5B2665A1E42DF1140DB5733BA218C7C687D639D339DED477F06C4B4E3626906D865
311
DC55F8748C50081B00FA29F83069FEAD28887C039897D5F5ADF1DE0E3724A7856442691C1792622E548DF32A2B31E34C944A0A5151451EADEFC775633D51995652C51417712630CFCB1C67655E6391AA2A5655A659ADC8B018C369CE838C59675A47623249785E7573A0FFD8FE2DF78B77F028001F51B6A33FA3D35DFCCFFD
311
9EF305504B0304140006080800897D985098C33A15FF000000300200004500000039314136333543442D304136312D343543462D394538422D3334333542433635354531432F4173736574446174612F496E7374616E636550726F706572746965732E62696EEB606060F80F0540260323103700495E20ED9E9A975A94991C
311
9C9C919A9BA8021470B6707136733630D47534B030D535B174B2D4B570B274D335357776357076B570317673664768046931363471713532B5D435353131D635313332D475727372D135343736009AE56CE9E86A095406B6974133A6FFD0578D2BF6409A0928D600C4303E9806F281E0833D443503838003830058084CA838
311
20D85859408D10006760550614842BF8C00CE435003154EB0328CD0314C204A07044C8C00DC15098B2D301430C4500532BC8680D24351FEC59803C506CF10171707962497286AE5351625E4A6A0A4806A41E48C10188CF01F10A5817CC2C8473E14AC10C5CFA01504B0304140006080800897D985088E57597CD3F00009041
311
00006B00000039314136333543442D304136312D343543462D394538422D3334333542433635354531432F5265736F75726365732F43384443364330312D413038352D343942392D384239462D3537434530434538443346432F7468756D626E61696C2F302F67656E657269635F706E67355B773CD4FF1FBF73E71C0E67EF
311
7576C9DEF3EC995D46C6A1EC5046649CBDF79E192942562825CE965D8A868C2842C8DE9FDFD1F7E7F138F7078FCF6B3F5FCFD7EBFDFEC41B196891913091804020321D6D7513FC77D8C5070EC3FFEE51B21F068154CC75D455CC028A3EA68992803810109FDDE5D5CEC5521B28A1B422BF80741695D5B529DA1C2D058AD238
311
8BDA9F476F7C2CADC939304173DBF48A452BF8A700C0C70C3D121C1AA15A5270C22E2B9E28763651F7DA0D12CE11077B2ECD0D560B5E3DE2368B1E65C5E1C87384A4CC5F2D9FB8BE39E9B77C753783A37998F5CEF1B4FEE553463245C9712270880DF339E0B882A6BA713D865F6F384C842D440934EF264F4A304F8DE4EEFA
311
1E2BF5E2D91F5ADD9613D6E31DDB33ED31DB1D7916CAF091286EA3D31B9CFECB78BB0060245B943C4C040119FF780A74DD308BA9D028678674EB5504ECF284EE814DAED07440BAF649BE4B55DA2890F4D73E2D489A59EE54FDB0A85B59F2F52C4858A02705C4815A792B0C4A996A2023ECB195073E115E3E3647F64243A833
311
8F2000BCB58DA5692C7E7C3D413F963FEDF3CF00FBB0F831A9D51360FECA43819F527B89FA260EB63C5DA676830AA3626A3693B23F1A17A0DFFCE3EE164E31B5365EDF0C89EF64D8E38AB0BA9A1117D7C3A0EC44F44F4023095E80BA610DE336D0F99593A88BFC5306E72DF98F7FD132ED95878DF2964EA7E43071359FD83B
311
2BDF9C6B5BDF768F0F3C0FC351199526F53D9460A34511F75D1B63E488178569472C91A94497807A3FD4A390C6558F26D416365C3656DE6E769DA9D8FC73774E1709812842DD8EF96AED1960F79D21B395CDDFE6F92CB4EB962A4668C76990E2EF29798C8941D67DA50F4A5F947872460F1F6FDB794E8A29FD7AC0C0D6E071
311
4339CE258FB17AE8535221E3464A10F29A0BE5EEECEFC5675926A89F49EB14E5711894F6586DB5754EB4D5DA9C6437EBA57DB97A24F8B8A8DB295FFD73266CF57E82694DF5166DDF93573AFE9C9C5EB05F8FEF8E89E0A8917B0B3724DB7BEBB53252581EFC3E38166BA131A3A5B42FE2AD00A769BBFA4458D2DE7822F8C4F6
311
3D0B8E21B285AE13325F3410A435C648C9D91FDEB109E73CEDA7BC796961AF79175E1A3CE4C5E8B0D009B0C9E29EFD98BC8E97554E3D8D838424E270F7685226E5AC268E021EDE3522D583E8F20C0BDE2959EF5BBFEEDAB32FE9A3ED0E39F211A86AA9DEBFC68182EDED132AB8BB794442D2D7EA9F4D8BFF52BC4D55BB1651
311
24EE90A42D101E67BBBB292FFB4F66DE5BF2300E44546757DA7CEF8932BFC9F92A0707953491A55C5A5ACEDABD9FA1AEA01BAC3DC5A24E22E7C47213493996EFBC369D086ED9397C9BA6C7F9855C7BD5E15BFC8C53DB3D2A4C5901A57ACD2FBDF4D1676E95338B2C2BCE65FDA4C64F5FEFDC7D9CA5AA1FCF11E193F2FDABF0
311
F4916BF13FB916A224380E6462A9815F2300DC49CC4DF8D055CEF76462F4B7A7ACA7365C2707891370BC1D0AA6203C44CCAB47084FEC057F27FFCD57F89B8B9852459798A675C66BD7CE572CAF71FF7E6D7ECF7BF62CAB7B3F1107DCD04DC55A3F9961700286141C94A4F771FEB2BCDA2DDEE0CB0BAE402FF1DB0100F8E475
311
DFFFC074DDB4498AB7D186A7654DDB1CB680D703D47CEB4E72F8CB13D86A4AA68116E26387B93FD6738779B34FEDB8E517EDF2BAF28D9BE93A1D3A164320E07D42E514725C29515FF361754213EDE06B079A2E99EB1CA82A02019EADEEB87B9AF005BD04BBCECB14AACD6B24EFBE482194A97DD32400685FF1FEF1544D1B14
311
EFB1E7F08E6D2CD2AF52DE757F35F5E62332EE88EA26417AD5C3E0E319D68F25414E6D672BD4522B278C57D18F0113921C71D96527E091F00CEB15AE23D24667369BD3CEFA10C7549D930890BA4366F4EBC55F01F746109F98ABCDD5A3EE06619C6AD78AB33E48E4C9BD21BF7478B385EC05C4F8987E2C1BFA0A60EBEDAA0A
311
E0B015C2720ECE180FB6F2DEFBEB822D96338C9B63822183BBF52FB664A7AE57003AABCE512BF77E7E31BDA2E739AC4C131657DDFE5225E900FB56CC01CDE808FA4A9C9DA16AC679656BB64796283D89812B8F91136AE18EE5EBBAF47A73BE3C153EB5D4CD491B4BFB4FE690A4CF9ABA08C0D8AA64220C438C96EA6CA80B58
311
FE5761E697B3A292EB9FBDA502FA863E49FE694ADDFFF9D62C520BDD1A22014147A0903A05B9B729F54272EF83931FEEC057BFF8C8055C279EAC5C0011804828734024F6CFA319C9CC6867C727184465CD9BB7ED386AFFD96B294A85E3802FAE47244602D8273615952B98C4F23F7EAE4463D9D638EEE374A20959E0FE519C
311
4CFB0FBFE5DD80C2AA3F9DB961D1BDE57E67C9BB47B77FDD74EE3094F5DBBE3EBC1FBDB7393F5116263009E2EFE1AF9A221B2AE234C902BF70E9F280ED23E73908361565964333A3F01D0B006AF32FB21AA1316744B489D5A198E85299241735BE559675130955C902A8ED761FC0DBE337A9F91919AF5CE32AF902ADF9AB26
311
15E00E8A94586BA1A90839B61832FF1BFB76D2EFADE6DB1BA04CCAD3DA649E7E2A0219F592E22F2AD54847EEA8E42271011E9074F8F3DD9FBA6CDF88FFC9FC7E811AD1CA8F4557CE4AFC7BBEDCF0114A48689F20A584520C74DA8127124B767E2FB91A6B186246727BE63C9445BAE02088D58B8EFDC0F1072407CD9B89A13F
311
6303B4A928F593AD489B58E6869325790ADC406036C591729FE14021F94B7796BB11848D463536A092A26F077F94639F7CEEE2A724C66EC885F4A24F8B8A0AC321F8FD149BA529460FAA34E4663C02D41FDF80BCA222D42F0ABFF8490F4FA74C673807C2051D8E467B47B616072860069A9A303ABA9B319D58404461401B0A
311
0F9BE5E1E151C14BC33B32ABE03DDE91708DFAEB15E7C0D593C86BB7D7EC17BE56E57975F077BFD5525F3A1A361D584A75E08CF29FC7B44B2B3085014F3A5A14517377C3F6B8F37E59514C3B12F8AACDEDDA4DFC49BE5710101534CD6FB6DE15B50F11A09472AABA727F0C49D9CB906B158030065F48EB3625E010CEC1D511
311
D0053474B11E6A4F01C0D6EF1BED3A944FDEC70E0DDCDC756C86545910E0DAE3BE3AA9A404574C2995CD5CAF9549226BC94B4F4F0F5F9086F418F6B32346464610D8BC7391D3C3A3CCF04CFC1FB2A3A3170E369511868F14EEA4E5E438CC73DB1F3248AA94B6B2FF33B222FF3D1E7BF146CAD229770158063BCE4F5391964D
311
F62F7E52A7BE0EEA829C9E13C4C147D6F93FE59E111DAB5E4594D6F3CD1AD375EE039930EFE5AF2BB2D41C83C7DABD8C659BAFBE8FAB392CA634F3D15C1D945DB4588D2B0824A4EC928AAC565557CA2F0DAA588CA5BE30B3A8004F7BF005E96CBF891D7F18112A3619FDF530DC8AA64954258E1811789B5189B49B4EB53F5F
311
89F7D37523894F3EB57B373763C91E502F52CC99EB7BDDF933FC324C4FFC2561DFFA7339FAFDD0A4BFBE6D3A8FF9ED1FC49898139864602458968913181918F719CCF5A68B2EE9C1FF050E34E63107003B8120FA982C21B30A874E4F5E4B38D5A8290C4B8D9BE48A0BE31EA995BDC37AC6DE90BA17D259DEF53605D55922FE
311
B1855D915B659FBEB350EE0DFB2F9F766E1C84CC8964B75D08667445EAB966015F63A18A9E0A325C1B3DC628C0D3CB60F767FA93CC65F25458BD23C3B312716E5F40E5858AC06EBA9AB14F95DB99147B832069201541D09A0D856E12C629CF32683760EE855537D1901988D5EBC156676C7DD51D7207CF3267AF1D76C2AD86
311
7315E44618015313A98B19941C696FED3461CAA9B5415F918556D7802EDACEFD6B2E45853A9735DFC9DBF7E440F9319F8B6805A973BCCDC76C069A9144E51F187EDCC12FC31B5DEAAF0A76137199B106EC84ADA6B6EE697D4E6A96E007417F4E880E8B1E89B4BCE9D81EF611E2ED8F0C1A6C25F620FAFAAB656A7C42D46488
311
0E8AFAB0E0FC8EA38CA9A8AEEAEE3E4648BA4680270A89743CDD3E6C6CBF34B7B640EFA285ABC7EA0A1E28F3CC963D114A80123EE66D0AF7D5380EB41909B605AB4765B709B808590458157E69BA1378FEC4B48CAF6A730E3BE3C5EF2DD1A5EAF94B1DDE50CEB55DDFD7EE9A16747FA4B223359FB1FCC69E1194892BABB93A
311
1D5C4E807AC0EA2E30180811E77A2291F6E7F7FAA5E0F60215BC6024E48DE436C511F0628B8CA189982D4D83CCA17D305A7E923C37941CFDFDCD93ACAF735EF5F0E61BBD3E6C41A59B242790D3A3BAC7064DCD89AA2E37214EC839820949D5CAA31E240D2948E48F690298974A96BA9A8432BC90F5071D6537C9666EA45647
311
96B7AFFFA548077BEEA75F63083435074BA182F3699557397F71548383FDA8CA34D99B981E72835ECDA5DDDC151315173D05A21F651AAF8524E88209E2E7A737ED1045800CE3390050BCFB8BE588DF111617874C62575039CA588EEFDEFEFE319B739DE2EDC147092A262611E159650E787917885EF08F1F51B8F2D8A71D60
311
B58B190FEF9541A1BE94BC19FEA50784DA1419FE4B0FB51B8D36B5FF8E1286FD8AF42B91E59A5F1CC4D60174E764045FD8C57B18209B217F89A62252BD20BE0E63E12B8E8F029FE19E0E8D0870F58721A557082250D5424F7909369376E41666C0EE77CD87CB283F661D5FB6D0DA023CB67320A20DC7BE661E9E1BFE546308
311
5C557DA1FF9BE835733766C3D139F2CF9E2208873AD0EB4814DE9E6BF2CAF81614D4D43906ED1C05A3265CABBFE192770FC2F64F940CB6B17B5F166F133C9AEEAD2641807C3E69515171DD74C4A85311513D6EC9530B3B601B6BA3EBFF3B5C3D2F7D69765141E345F75433953D013ADDF8F6AA7DC3F4A7563FE5C7D367937E
311
2900D7EAD0F9FC9A4A1A9B5BDF1FEF08532660C01C5D6DE22199AA774383E306DAB87E301ABB7D213887F9869D4942D0D71E94B27EDF216A318BD488D45DF84529EF575AF3C3938C0AAA0215B01994153E2054A0B894DA5C784980633AAD48576957CF4AEAEAFADC7C587368551C73DBE1E57C58AC713303A8BFC258BD04B5
311
1724459FF9E24C03A81E0E0679CEB9B348C0DC998FEB9C6D6EFA77D247CC8F92D3848599ED89A23218D0636465AD1CEEB7DC140D7426F83491C4E8E8281C2FB35240918FFECE880CA2A42D70E8B20B34DF5221C7DB0CF90ECCB9C745B37A47E9B716FF7A97B7A252C1F3814DC7B1E1A7F72B8751D524EF7CAE45B0C73B3BE7
311
D08ED39781B380DDFC9AA4A4749C9493DB5BAD07A6EA6C092FBD0E85DB004DF06B8C9D3089C5320187E4CE1846158C7EA7DDAE8AD9AFFF21AA3A1026BB06A259845E8232DEE62811A4DA9CEAB3A4887320B76E2AE5615EAB7BDF738CBDD01F1E64064BC13D9EC53576751CA8CACD58B3CEB0E6CA585BD089B2A59B9FC10140
311
3387AADBDBE70586B93D64BF3AD4453EF9C3B6A93817E8346991798601344F79A83C51F3D50F7BF2683A3605F51A72449489E0EE6169C749C60B1035651103AEE24D24E51A759C840DD3FC6504DA6FE107510E447B43461C79D22970B75DE5E1BD3007D1AFC619A4A4A69B5626AF5E9B8374E20677F77E2F8E73DF868E8BEC
311
7EBA7B6A75EEF7205E1AB9486CB642741D6E03FF13FCCEDB1C4AC129886268B01CDF4B124AF797CF784F3C6DEC97A17D4B558070A0F1C04DA4FF9BDBF34159AEFE958479824B3F58EBD1E19088A2AFDE501B6F2052368A3FD0E650A179EFAB1561E1D27527077136E652676C3670F42DCB3352F48F6BC86D2C3B0051727E41
311
A0A4DC6CE2BE9D47F5CAA2935A3C0539AF080665997194ABECD723B08129CC5B6B21D2E7D54CD4D12610E7E9FB8306771A89576C7A982002775ED44F3F744CF21EEBB27A631671D921938AAEE3EB0D19CD1E083727F607823E817BF599DCED5394E37EEBC2E88782E638920CA641EF74D4CDFCDEF06F4278ECB18E31E7E987
311
6F2D783C8BF429C75395F57E98C2B495A3DA077EB3AC3C158608B6B57FE3EA48484D9A480096FCEE0DE880950E7E5A5714131C5C41AAA29FD19AE81AC145FA1B9E85C7169A5AB837B213493DF7E9AA4B5FBF9CDEB36EBD21EF1181B7CF7366AB2A951D01E37AF4EB835D1BE8C117CFBE7625D2EBCDB0B20C5A4B45CED0BCDE
311
3EE8DA9DA78C2E21DEAAFFD1197E463C33CC6A80FB785669B856EFF7A8CCCA2841B5A5369173320B1170C368B2748D81062EA0296E5E2D95D7667A4A46D98A6FF475C76AAB0A8C8D45E226FAFC9FE0133EA9F60111F99CA81ACE03A1D14C89E8B0D69079C91464FA1D99E651D0EAF606F345C42A8A1AA9BA391031582B96D5
311
B4176A77AADB01F12FD298A75DEEBB2C82F0B8650E880722F8DDD90C56A7A058E5FDEF1AC93545BA27367C76F5D8F9690CB6F8DAE141EDD7971F0FB548A2AE435F224D6E5954CA155512F7332029D5A1230854B79F258EC5FFDB09F5F6343A8EB193229B7F7E79B3E48F8E183860B38C8269D1B53738FF1E0BACF6AADA6D48
311
69E9DE708E79B5DADCC09B1BC76F649731CFAF59A83FD8BAE4C749D66FA87A3810D4D62FFE826FA400C0F325D2BC0F3CA35F5847B82A2ACC7961745C823E4D863D54460AF792CE6F79B5C7A33B25C3AEA6CDE15A919B6367D781E9D44F61BF828672594A3E1D9EDD6DF179A81F27EAC05B936575D73E05C209DDD2115CFB70
311
5DF9BBF3C911589B3640735E9E618FC9C36A7326C82B2205E244C55D56FDB9D5DC93CE958D4BF8174D2B3DA54CB3C09F2C2A6DFF73D23B2197355761AD421EC581284A7EF8DE2CE3497C0C804D49B41DFD6A7360844E5BEFFB495CFCDB97A4595911CDBA623274CE852B5E278AF0BEB1770E9D37CD977B2766A7DED0E94B84
311
0E1E95E8C77DE5CB6354AF7871427C28ADBEEF7BA0A28E19DE9ACD75F379FE373EAE6DDDAE3834692F9C2B03B4FCA8FCA9ABE8EEEBEBB725B88A7C90941E850682CA04061A7DF0CE82ED49BFAFFD42C309818FAE14755CAAE78B0F73243ECCCAD7DF58FCB9CDFAE7A4D3E6671A613639130D056C8383C8F4FCF4808C331E54
311
4DD26E4755D09EA05253B3049A1E32587CC25D72E073E2CD96D04A71BBCB0038FEC3F53D254199C3CDC67CD66640269431860225392B2CB3ECD0B4498AAE78BA1994246AE1EE78F2EDFB79F6C6CB6B5E279C4D373FBC21CB2698C9ACBBEB6A4BB6B39E16AB0E421CCBFC7654D81ED86022F9BB522146F9F4772E2D0E4FA701
311
20C95A85A417BF5078B232F4754363EB1750B2AC2148EB46B1EA72AD9B4D23ADCBC589D70106C3EC2ABEEED84DFE28E718C6C83502C28E9FDD3B09DA0A6F6F7B72B706A31C9E2A331EE70DA56A083D2177BFD63C55B11D8D949FAFCF90B23A1E24B9B5018B9A17E99F2890EC302F330FE7936E2C23F0D237EC8916F5166AB8
311
4B62A21BB0B950146962D754F92CC2C8877BED8FC7B7B25726DD19545392570B3A2C66B58F027BEF412E552D12A588C4A3CC5C3193FCB3485EFFF700D0B9EEC077754A33DC1FB9E25AF814628F91DDFECB667D3F7690803F38D13F8AE39353523BB08FC6760144AFA2CE28236F65EDBB3D5F59A57D612B99E3D7E5F8A85166
311
6BF9B5A6658EFC96EEB37A378ABB0EB3FDDF1303AF32C41BD1C8560745D7BD81066B0D6313359CF488563D3BA3F8E2185D1FAA3EBA1397C9D0E3DD232180A4DCADB6AF25DB3AC3CC26589C8239E66E81547BC7E2F328F9884764CA37EB5DBE390DFC03A5246B456A7C3684C4377D0EEF9A350680FA9A077E8B2957B489E09A
311
B1AD41316944C2254B5984830F691C93CAA767EECF976FA5647538830B5E63236A6F0365C1E0F3E327F24FE35EDDBD7360B0F7374837409F7A6311BECC12B7026D4FA1AE204FA3F5FE904B1F420C7A9044AE58E403E7C4848E7DA25DC9EDAC79DD756FAA26B9EA83ACE8A214A2612A22AFA19DAE7DBAC5F8CDE1292A485F98
311
DAC731A29FE01A3966E96BCB9FB5A4C8830E1B9AF0C54B87FBE221A097036E5D28D1F869F810C06A9BB0AC0612F69AEBAF893C6E7AD59460208BAB3A6B09CA4F6BDDAB8CF0D1F84B72487498395A70DCD754796E271099A567A55CF242BBED64696378BB6CF25EF0FCDB589F3A82F1116D010A9AB9FA4358809EE0C973A2B4
311
229BAA876A70B03AB49CBA7FBE71DB1832FFD32F9BF2C8E98075CACAFB36921235D0F552B6A67E94E094097A5D7DF681B40623DA535ADA7A9AD8E9A62407D7C9A5AE51D62A17A83A23728DE86BB56115804D3F2675F2C6B87541A0FC497BF0CA86420F558C9859EBE9FAD62747E323E3AADC03FDCDDFE7407B09DA90B44E31
311
85723C5381EAEF589765E2F7A099BA46695BAD60CEF3491B8A171F5F56444F7CE9455312C3498C74173AEA0214EC029833B34B650CBB5A5508D5091665309642791708ECF27CF11DB3D797D6CFE474453BD4BFADB768094B2147814D81C7CBAF8228DCAF5564B5891F5EF6A860EB2E323CB82AB868D8EA048880D63B0DE534
311
1F1B3D53297B928A11E15F25E5148990F710747C3509ED14909C552EBE3973246FCE55D00564D8310BC3EBC5085D08D806799B77D6C57FDF5E55837F9E934F09C03C729271B64F12D0A9F9E938107CAF7BF1EC8CF1BB9B42363D33070F4CACB425E605DDB0A34A12BB936DE286B9887A4E2E558F0886498BFF49C311D96C27
311
7CF6A9FC0D75AD0ECC5226D7E0E3572012E56D7FDE4410CEC7A6D0F997F225A2055B8B92E3956E875AE4993CB3D4C9063AF98FD45E1BAB165640A43439A2C9181A7C355B297C0A0CCFFAE19B6FA3C2BA238A885FBC98B8F6DAF4B94B97304878DF4D8BFF6A4AEDF79E90ED4E68F00CD7299F4E0D83E35601AF0CBEF18C1E87
311
0E74758FA91F5131075004DB3CFCF09AE1DABC11957FD9808C92E8A678CE9DBE40DDA0E0D1D505AAFBCBA208232BFB6FB3704E8985E61ADE53DE74152F5C7DE74B1DEDCD37DC3E8FB30D7EBA8B9EFFC3606BF90B8D438279CB7709FC7C00D327F41817EEA71CD9E49FE9C8C9A81C70915D9F0F15958EC5AA4C3BBFAF46986B
311
90F188BDB24B89DE3C6F29EC3E6F66D84856EE96A35E657CA41B41EFD8DBFA16AD6E91439EA92B40B21C053249F51AE50EB0B24C770FFAF40DF12C8436366819C48E36547D4E7B72FE2BBF10828583057814A668BDF183F6B2E58DFB151103E56303E63D00F39C27C4661605DB644D19175D02E3F0241E8FC3458D17AAAADB
311
117CE9EEA690D0DB01E634878C04C2C9310B69FCAB831151E3AD293BEF6E46B0ABCECB50F5939B39C613D41E81FAE8D34CAE3C4566B761D37185FE864AC32FCB71AEF39DAA5BAB88609BB980CD2F07A8F941653B529567726E2B2A58D079DD57E1E5E31426CF184A04D7B03B985F276D47406AF276FE32E3328BA866EB1FD3
311
9BEF57863A317634AA5FE467409B3873F5069EF0D71AF00AD189D17BA1974ECDB2D623E9E14086386A6AAB5807825C37B015BFE892AFD154920EC437EB945D958E18622E1E0FE2FA06557CE4BB9BBD05A2D40E774DA2B65473791E314B7D6C886820B2FCFE4AA272B3B8B15E7344A145E8AF919B5454D89D36D413E8721118
311
6BF6F645E5EC94DCCE8E1C799022E4EC9BC86D7A0F2AFB1FC4B2CE48F84B3F49ECE65BAD24CADCC07EFF39AB06BE9E6B27A059938EA7208838455383DDBCFCD967DDE4650EF92A14FF933C975DB20BD7FEEBC4487576485963D757D16340D9599FEB362F775F38CA4185A86F74B629C81B133644A3B18FD056E997E0734F9B
311
E26D11C0AAFC669E2AC9FC41D281F8B2E1C35AE27BCE05F3DA295488096688719D974DF1B5D182DB7792288697F8763CFB43562C1CDEE11C4AABD5C22B6E33F6F389CFC3477C5919DC0D533F8A7A1846B7ADB60ABDC26C43D0CFC8910B7C15EE22675BD02702ED39DB77A87A192CA7A543E6205B979B9F5A6B512A3CA799E1
311
98B2D5797C0AF8D1D872CA455D4D431A7879D4DD76110B5FF7F4176B54477A9EB5E4A5D11214FDA585F0382751D8E2582BA5D2075053298FEB8F1537304E32CB22C2E2B693DC0A760B1DFCA751BDC445AFDCBB12820ED85F6D5298933C7EF1211E9E057684056CDA3FEF3BB6052355E162DF27C59E965A8DDB7F9437EB72CD
311
DA3A090DE65A5B2F50326247B7EC67B73ACC7047FC9B353D6EE990F772207C6EC52B39DC2F3C0754821DAB559F7C1809C7D0DD5B0499D0442E0A6E391B3D5DB46D11E731E6794EC77523FBDAA242ED67F9FA1FB684255671F63C9BCFE6E7E896D51001A6113EF2298BA494E0B0980D1FA5B9D60796554C02256B1E0345FB7C
311
6186B6A19D2DCA270416262845FA4F42DB5D9B0A0B6F07FCA2E56C242522E001E0CEB734AF310FC8BFB57E38E03AACE93B3326A2197891E68452B26A6307FDABFEE0223D3C03C3C73D2D5BC054C8311F12004CAE488E5C29287F8156A2CAA4AD0D7BE6B97264E4139F437CE73ADF52E5134C52B819777C18B323A5924E4F67
311
AFD13B1CDC3A61793A79FAF5C0CEB718E441071E797C6DCCB9EFCF7E4A1E9F3DF3C2F9C9E8294E9586868788C972857FB0556D7A26941A7EEB9B580AD78EC40B85DC906B4120A563CA3B87797ED612D3B035962BB75F6515A393F4CB057F564CDF54F2E5A024514E6A1F901DB80C7E70B1FC05E356A7E72FABF4775B3E3FB8
311
F70A2A8E7B6A94542BB304157978CCC999E707A29CC795E67A59CC546A5D47B368954CA7B6E75EC9E1F6FC73CE3B4F71F8CB1A6B15923D61EAAEB14626AAA9D04A26EB9C66CD1BE86CA31A5D8703DE04CD1EBCE4F5CCB62F93909AD11E55799A781A956ED27D3E738F4538CB04ADABC7DAEF20BC35BA6A90BCC1DC61BA05F2
311
0D8832FFB9BC9B15E2DB838A0AFBB7E0C82A562127E0446894F427794C3037186F622BF24DE1B00AA10A23BFA47B2A180D6DA5AD6F7326FEB8C100C2D7142EB2A0B2A9D1008A09BA343D70E054AB69E2A7EDB783CBD92537FAF4A44D1296AC2792729104B3276C276C951D0CF3CF3F1E6B017720A7B8505A5FF95893659796
311
78C36F1BAF759EAF57C60F1FF5FE9DCF5F8E764FF25A2D06CF25117A8FED51884C13B2B750DB0E4F5E3D64124FCF11F0AD8F1CC3B3DA4B38ED22BF1CB2585EE6BFEBBA63FBFD44F9537B9B37BDD6B358720F98A8125AED4349CCFEB0E135F19E208A04CA7E2B10711185D72E381F448036EF57C9F874E54A971CA37A639E98
311
6AC0226DC5AA00D5B14FEA9192234B3DE617814FC221C92F33F1D392F297731B567FD98FD91D989379AF567A65B8ADF177591DB90FBEA99BF4ED11B16E50A0AB1DBF1156D034BBE04D69D08F939D8E92BF525A1DDAFF80ECBC95D8F45D3FDD289FD23F7D8B452F8EBB34EC082DEEE68E18EDDF072060FAD2AB1504DD4879BF
311
67099FC58F6E9DEFBF645D16334A3E9A127C6F1AF6132CF287E433B43A0EE93812B4AA0B194E03EE3FF91EF9C6ED0074A2F6EB18A96A7C9890B1FCDA1F2095E944DB911ED54C60DF16FB74C8CE9BDC7C54C4F14078CF73C2FFF1F1BBCCD7CF64F71407EA1683DBC410D226627F66E509060D5C0AFD611DE681D509DB8DD12F
311
B1265B03C6F5C55FF4C30BD94187FF692B4F152982502F193098A789526A038AB529A52BC0DC4FB6285CBAC10A8B8DB75DCD9BDABBB221E27D1F8DA9F5EE5926A1C8AA9BA9BC09239C6A7F12914EA3B59EFF7AAEC3FFCCE56F1C5C2980AD072793527565E774F4631DB178CEEC691B1F367BEA0CF2907E1D6B854D52706597
311
9DDEF002D8B2ACEA7CE21AE297737EDE1D45B31233B73FEA35BCFDD0B09721FDBAF6432681F2FD10C3E9EFB246FD6E854B344ACC9D8A0EEF876A7314B49B6A499FC650B099D650DBFEC7638ADFD245E2B7839DA5AC5F7D5623FC0ECEEC8653FC9B2BDD1AD4D00A566FBA7186DD3C9CD26512551637498CADB950FEC71ADB9A
311
5524285DE328B8EC7EC75D2345AEC6A27C42AF6D9B92155315C80DBFCABBB7DA0FAE425C4FB896B15C9BFAC4FE67DF5A23D30C93DA4D8F36FB15D100050DA6062E22AEC5F4DAC4F6FEEF97AE05DE63C6D38F9E068A20BC5E3B6BCD75320C5090924E7F93640A7735B1A43451C2D91EE62C6238B797349E59890AF3A520DF4A
311
87095F3ABEC2E61F0593416CE46CDCBE0E00E2523FCCD04408588B5B6C9DB6459C786CE378770B54F51DA3A5E1DF2A3349BEAAC234A6CF8993B598B3B25B4B113E353A4D750FA7534749430F3EBF2512E7EA3FD43C6AB9A1F765A58463B306721A15D224FAFE8C6F5E3432D57EE697DA0DD5A9D4866A8BCCAAA9DFF1F06047
311
851408FEC060471D0E3EB86BFAF46E4B5E60311DC3E3CEA147C75CF971BE74689507154FF2D2E92F15CDB2B9182B11459FD8ACAC5A85F174BC94A7F4EE4C4F5CAFA7C02E37BF0BC77B7DCD0C047BC316F562A01A441AFA7931CC84A28CB9F4AA367EB515778F29BFE61195FA671F4352E5E46E3A64773F1F76EE5EB36D7BCE
311
9BCEAD837A4D77F8DB8C92AEEF6711920D7C7D0F76B0FD0EB7AB83724CD35BCA7D36DDDF5FBB7FF6F04A91F3E2BB3B8F1A43CD659639507FF6331C5F697BCC782AE57D757A27D97F1AB9E0AEDB43F92F1B2AACDF5FEC8ADBAF9F814E2027003BA2F9E144B1938A7A04050AE5D953B82C45619165C813A10E76DD6906B3C164
311
38064D14CDA713AEC420034613E1AC7241904A49FBF87409AFB1FCB9B72FE7933A87D8FBEDACECE4EDCF6A4FE9FB94D5DEB74FAB7CFEAE17EE965DF980DCCA2D04134994F9A2E94D2265DA4FE6AA7B7AC15FACAC2B5ABBCD7DFF542C5314FDAB2E1B9D8B65220B8E2B638BE008E8DCA22678C820C5053664D15E89F2D735B5
311
1A84955E81A443545E9FF787BE0FA700A76D136C27DA179A7C6E8939E01BE756E19CB292798063D8B97F44E8A27BCF3A614FEB8BE974A718E86F7EC99B53CA35FA24F61F2B07266684623A3D4CF073E511F3A10A8FDAFAF0078C577F4DF9D339FE7862E5FA47CF4344209E5BF76D783B1B48E152AD281B15FCB934DCDA49CE
311
C5706B1EE8B460F435324A5CAD154725E21AB8044B75A557A79F6C807B9340AA3D92503E866F4274412926C8C504E4D5EF8C0E68DD0B028781A6B4054F11CF18941F101C57CCC796773ABC8DED9CD91FE5788806C05E548895354AEAC96546D55B0E94A59F148D061F42AA398D822CDECA4CDE79E13469BDCC44FDC990F366
311
BA5978C15F97ED80CBFD73B0CD9B8B83A4F6845BDFBFAF034019473FB9A63BD55D3A4A7284757071574029A4D016DCCBE95DD679EF3C4880BF169422F8C89B68A988D2B13793CAED4F74DE7486C72DC94DF46B8E93D8E02EFCB1FF9B3BA10C8AE7F653DF94F4AF466CDDCEF5776687F7C4C14B63E4EED1719DC2EC482D7DBC
311
C7AE518CDE3D5FF86D39000EC3673C0044E1D308BF05F74D1B5F033A7D1BE7F74BC55BBE3E4A20F920946CA0271EB17BD2B80E5660ACB8A29A79F5E4BBA49D4D945B6EEF4A7EFEAA65E5555BBB57A7E15D2F83C69F30BBB978D2B39F1F26FC097424D39BB33CA3D87ABF64E307938B685BAD44F71556A30B7E712CA4FE6006
311
13C3E554B69ADE949A7CFE214DF1FFF05CB82151EC6FC31950239F94CF7AD39DC473F6EA356E5EC2C4EFA04383CEFE985A127484366FBEE3C0EC4FEA363E4F6632AE781392FD45D67B63FB8DF70E82734F431FD3443172A0E30A83D60982D55FA6A2CF86DBA8382502ACC6CDEF3B907982EED1160E14863FA242F9757347E1
311
544275CCDCF71ECD5F8621CBEA326B8BA884AD7F825781923E66971F04010D574C541D8427A438A37EEF8AF88240EED7362C953F5A81DE2D56109CDE2524EA0F5D2F87308C0C47BD97AD605878AB8589E17CA83930CB5E0DCCD75853D68B1AB136594926DE426C367428E9334AFAFF90ECE221BB5DC9E5BB53D2CDEF954EAA
311
9CD814F0E5725F1965DD458E5F8487683AD86B9D0076BE3EE91EB1CECC5331A67A3F79D8B27587C12EC2A6A70474749F27B4C0BBAFB94B34189E88DC18964BE4121B9137FD516C7755356E50D6714E31ACD222621EBBCD1CFF81D87479056A9DA0E0B8EA19D24CF937DA89F78E8650CCBDC110AAB6C4E46DCBFD0446BA9E20
311
60E81F314AC2031E88135E5476AC0160EF5C0DD2EEF1B8B5CB2D198BE9A554A9093B5F7D7E4B5407DDFCA1D9C152FD97F55BFFFDFE802954DFEC8995B983E28AC92F1971E28F531DC407A1280EB125F64A72E617EFB27DFBCEDCDA2D6F2BDADA36873EE46B9BE1782998C63DA7182BC383FB6FD15DA472B175D7E8B4FC88F3
311
8D6E07FEAA3FA3CBB8F6B449ECF14D2175E5C5CCA3A42ABF24CA6C9395AF74535F4DDB38CB84F56614B0FD32D7E19CA5CF988DB4449C40E23DF2B16772594554579094450F56F253CD25EA7F77366FB1CFE79696C428BB64D5A41E986189427E5E4D7E2DAE3D5BB4972B3DC44EAABDDDD63A2264ECFA5C786EB0EE1FDC5BE3
311
4FA0F08376869FD1E61EA06CAE15191135445EE8F0394161C3266A596AA035572BB0C8876180D8B9C77D307DF9DCDF7365ABDA6F3A2366436457A4DFC1F259666569A9E4A79C817BDD5610E5200FCE894A358EC72858D50EF67545DA81C6FACE3D457BAF70367E1E6BDD9A952FB4F56247F58F523B97E640246051A72F79BE
311
42FFA0B3187F63097F91C48B868586F714B0EBD5A00A8412C1236E1298F60C72BE6C96B82B404CADAA304AE9F303176B14BA53FBC2D5E86377E35542019E24D97B96A49B2C0E5006E7795954DEAF5DA58958839043C6C70BD3B1B33B6DC5C31316D8A6923F142E26F6711A2258AF977DDF1F970ECC4F1F2B434B96D81BEB6E
311
89BF3BBB3C7C8CC80505070723D6D7D7D3C8CA27CA164A26024FED94B12A86031867241DA53D929636DA600F050BC40CE48B8BA03D69224720DEE2ED2127390BDF5E6EA64527BBD4C4C63FA76BB801FEEC0E61218EC98A8A86CD8313781617877E66692839B9468CF4DB8E50A73986E558E309C0D6F676F921BE02F1185454
311
DC75B111572FF9D27D85EA14C05AD7271225B391C4275659CA4A43759D0BA44639BE4C30A84DB7F67A41399FB95CBF923B1B1672ABC807C1590557FB18D811983FA97F5E609516D62281D38B1281F68FC75528C35E4CD7DF0F7DBB5E5DD69C414EBEA2F4A5B241B996BA77AE6C772E367408C633EA3E438B68563EA8BE7667
311
F3A4C4FDEEA52ABD78A2820F443B7914A15F180018D231E64519C56A12F6CA7C8DAE18F06F6B769DBF92329EF6A5D18FBCE600F36BD8E8198DE5CDAA96181F3A756EBA5501CEE58F497EA4F418A2B82565B9BCC611713C0B708CCA1F398B78C5F7D03B3437CC18F13061F55C7BEDADD5ACB1DB0E36D3CE47FF6EA1A563A57E
311
9649EA5D14D1A50EAA457463381C073777EF1600607BAF6428A7DDC079D47A204EF1E1F1F0589FB054D45E02CE623B3823C317C601E589E22B1E88B448524B86A82828E32345EC18AE17214B42F8C41C6D428016D9BA31DDCB47572561E5A402E5BA4FCE55F78AF7268524AA04130F3A20BA5D1E9F9948EA48FC8F5314FDB3
311
5E21898198060034ACE5E3E2BBCA34092518F275190AF65F45867FF0900AA4B81F25427414C372BF51DC29AA855C5428EE1EEDD6B849AD60F6E73475C2D2523F8A2772C840A478DED18A8C5C91B085F255DC4F54EA7AA8947354FD17ECF8FB3B4A0DE7B483CAF3A1165EE05BBA413E5C1FEF3DE1D6B8F2F3F3251C17D9FCAB
311
48A9AAF63AC773A0E413BBC46A9ADF84A566FC920E4D8C52C9769EE3301CADEEEDD92B312E02E2A7E35B7F1E7D203FE5A7D75578B06E99D0E46FFADB8FDA17ED8880390DA29094202D6F645F76F6F96409CDA05495A96E84B04A00D1A6C6C81D7F3DE9376E828CCF144EE50E364ACCE7237EA0BFB5607ED1AC3CFE73794E5B
311
61739D14DF1743441B1AC98F00ECEDE9E7301FA29755FBEFA68C91EF2B314CF510537EF1ABFC9A762496280B546F5EDAAF8A5B387D469FC9A878A92828C88608453ACEC6094DCA54111E7AD5B2663DFE2DD151B7F123B9F4FEF8EE36AB125FD7AD52A59B1B765B3E3F73E3F73DEA93875004D2AFFE3CDE9493B87A9904DD05
311
2028949041A91DC0E1BA47BA714343FD5B25E0A6A09503AFC17C790058A836A324FE31D7893512E28230332F153181C1E018E1124EBE1BA262AA428A518237D1EA7275E48C5C561BD19ED6912EDD8367DA0F31E40EEAE9683DA9257525AEA7B632B97119E17145A90231768A4F3B9120FF32E8319B015E3CBE26F1A754177D
311
8185345817C096B0CE443A955D13AC15E1FB5DEEA0239EC32A3C92241A237B0B02FFCB4F93CF2B02570C8D192E2F2A68CEEB42F12E6F8CEEFF46C251E22B4341C56FB08CCE550E7A9D6F4D6564B9EA52A83D5BF2C6E03FA19D2775E15A8A7ACF30A13C259EE7F5EF2AC3BA354F1500E1A07FC63FB4686E2F12EC69719F9ECF
311
5FE3F35598DF2CE944008CE78F0911BA5BE5D0A34E0098FF038669C26030BA9B300303039852A8F6F496341737CA7E0D2E3AAA36DE0A70AA7D9CA0D54D9AD84B18A44C9E625475E1C97B93BEBB38DCE7D227E67A2D00F531436136355F243D1FC0D712C5765754FA22FCFFAE97919161F46D6E61ACB37D83777B385889770B
311
50765B127768443A5C4D3A4E35A3151111F146B7CA116F918A049F1C272F2CD7976C69A0068773451659A97E0F4A08FE604C3FF6CE7385DB19F4D3ABC8A0D80DA8A42096AC377DB49382B36E270B6FA7570188B4B7D1DDDDA82ACA487CCA5D38BD3BD039ADBAFA4ACFF27809239B722081E2EB9F145320553D183F28471C38
311
8BC8814E5045676767AB58A8E72D1CED2CA731379515D2E533E4CF0B39DFC625F97AC4836831A4DE330E87A8126FA17EBE583D614E71E22A8DBF2825599743E0640037303E8E1B1E8EA4E1ABFA4F62907B5E4E0E5DCFDAB417C36C6848A2B8D15F1E505434C0707E16B1CFC2A1C36A42BBF55734F8F4301DDC2A5110CEE8C0
311
747F69519265012A2174BF4E955ECD4FDE095A3ABC70536B7AD0B9D7892F81287D667C108703C9B66A221E9A0929D030008F77FF6F5D2108EF5706FC87A3069B976F7C9FC3239D13D283CDEA83597461079FEEE049B0F392889898B7D87D31F8D60ED7B56B91823A8E4EDDB36C6172ECEE42BD42B12CD67994FA0F0DFAE938
311
9356F4CD4425A4B8AA55CBF7ECD585C6A2C2316791E43D5C06841ADBB226A87FD61515FFBB0167B74E56BD7F3E90A57A97FEDCBDF483A0D6699A8C0849CAEB4947FAA90D8E332D9DEBD9F4738C37DA0CAF9CF3DAA68BCB67C420459C7A64498D6E848E5CADE92BB6901F607AA331104A67F7CD650EE169B1DAE94D2C31C2F9
311
93632259B6957E246EFE4C5481107B07118607700040E5812A2A2A38DA0076875258C753F60E0F2662C748EDD5F3F3686B8FC3BD6FE631ECCAA1E8B1C1E565AD117E54893E79F4672E32F9E46B2A183DFDCF3EECB4D4D077DBEA0DA254D256045109670050129E9B9B1A9E4A11344D61497A992778095151510C4BB7EF2009
311
B63AA4360635312E4CF668B7E0D3D85A8688E2BD83B569439892ADB63461930D428E0DE42E4AC57CE48DA5CC1449530D8BD3D6A0F08DF20C8E8F570F2CFFFCEA286E30969B4654D498A58D9DA782E19FE3F002181838925592C4A1EF0B332D88B61A92C644547BED490D3A42CFFAB70E36D961F694F6307F72FF15A1C79D5B
311
1B5CEFD353D9E2B52566DEC8F8F09CB3E8359C0F68EBBB7898243E34E12A015B2685AB303C04D3A9E00671FF3DFF0A184E4A2ABEB2B666AF5B3A209C73D8EF29DCDB069C9F391EEE9DD0F74C7BCDE16F8F02E3B8816122BBEB50665775B600549D8BB33A54A6BF940C028118BC6878C79958D6784F9DEAA6E26748386FFAF8
311
D0D0101E2847B6563F5D8DC1D78F787BE00E2C941AE12148D4A81599FE8F68D4DA5CDED75530ADE138240300EE13B0FC13A1687FED6774662C05A2B7DFB186732F0D7A93545D8B0A6390AE5054D9CB582DA846D7A061B3358B45E2B52DDE63E114397EDB7E09233A579155D795BE76102CF277F4DF8B188C4F2879BEAE3C08
311
347124BF9ED23B128259FE107D31E34A652F090B30B39E0D9AF917B76A2806135621A8A60681F16AF216514BBD02711585B5B1AE823F4B2D0369EA5B6BCB863072727FFC871CA6C9AB79A814D989057E9470A3D238BC87CBB4A0EA49AFE2B86F22E499793CAA9047080450166BDC357524561E258C77CB697F1ABB32562CF8
311
7C3B7AA12F911EF19FB3E5C02222E887D08202A60A17151F5E053A86B437771088B4FEE14D652C43E8D939995D34545E12E2FF93D4E366EAD25F10CB7DED141563C3D0C447AF06078A91135FD4B9611583CB4BF3BD167F2399CEAB0E0100F8FFC305F00F1711717173138B4B48C83022295DE657EFEDD97F238ECA80F528AF
311
B4F8D67AD4E2594B9A3AA86D7487EFC313BA95745C186F0CDD84CC12DC9CB0424B42203D351FD9C0A3AF10CC7F388E0329279087386421F194F4A29464C1DEF7EF8BE515E4A199DCD5B909342598D8FE6A231F71336248D5CEC5454455C7BE383B3BC7B260FED27F703FDC39A170F3827239102F59D4DEE7FEF82EAA1A5E4B
311
A94DCC4CC44E7E2EDE20F24244E4454369D2E87C3F823F193FD4FD27E1C23984B01898D15ABC20711A8A558054951A6AE280096BA36CBA439603B7B0B4C45F248C14B2383B4B5CD8ECECE4FF859AD4A6CA2326D020EF090F4041D28DB66E5256B56232CC52829DE8060BAE6BBF37D4B7469B822454FE93210A3E8D15E69FFC
311
F01123222611C51C4FD0A041A0CFA2471CF6BE38D2B20FA4C3525B5B8B586759475CF80ADFE67A284AC24651E52B8E683D24C2622642F27E7C3C22783BCF63648BC398BD6CD0D9C97E7E7E3EACB6126DB7A6C1FD9F1031302EE67ED96F22B77C7CA0239BB324207559B105E4693EB26EC46182A92C9C0DBD24F29B31C5C5AC
311
1F84300E0E17CEEAC15F5736FA4A98971E2F1423BFCD68D4BBD5F86E74B40A369F39507C88FCDB35D2DD8DEBEA4AF999E23CF2816D204200DF6E611781B9884C1AC8888B4DE397320472959434323A5A36B22A8E1F721A270DF3BD65E4A31C11FF048AFB0D8B7B6881423793963A23CFCE935FC189ED36FAE35C46DA3574C9
311
79E4394BE52084F3081837BE033396D2EBD80F1F691B273F660D2B32FA27A33B1DE4ADA5F0FA4651511102DFA410DDA86E065272CA314D5249DF91B06BB92807B28EFD54F08F7B525252782CD276DD02E6B0319B13DF87B1F6361AD6B28FC0D711CF445429B9E5A433CD493051C49A9E03DDB1B147D880253514A5DED88009
311
018620EE229101C041950E2D8AA8E1F5F5438E0C0C0C60EEDEE9E3E0C051948C69F84BB7B2A48A1F3C8EB9E6864687F4F4F6F6E2FA87608ADAF9C5E117B7C1A737E710769DA1D15ECE6A84502AA855398712D5FB51BE92E4EF824969CE18278798AC303C2C7980DD2500ADF8FB1E6D6C2FAAFF9987178923334A244758BAA0
311
1A9A1B70FA5097D01E1CC2A58DAD0EC94CE6430AA9B0C10D75E3C6BAC670EFBADEE1607739CE0FC18A2587E3EC3058562014C64219C69BC269082D5C2F4A659278D585755912176D78A1B641719C2A394CED495A1AC5D583FD2F5EDD93308EA7EAE8A6DD396598BDBD3D4CFED62D18A5BDFDE0DD5C80D1A89BA62697B131AE
311
7CE9A6594138582F1B37D68F1749AC7CB67A70695D48A4A056AC1FBD4E82358CEAE38F54B95A9016F9000F9879C0D9D131768635CA798895F27D6F1614F11F2838A83611AA51C9A3DDB539D42979C29F10465655C17BEC3E2760B80DCBF609198C7B171A531905F3EC218D696025975E986C6B4C666666787271F202805577
311
DD5A3EF0CAFAF91B62DC4B2DB4217A7606282F31D8DDBC290593BAA93EA6353AFA9939B877978481E15CFC9F2755CDC00C538F63A4BA3E80AE009B73CA0185687D339A507D165B74290D6EE46D5C58148F020C3668ABE9EF2F7549170DC80DB41FFC1D678FF19AEB10C7133832B104B80F691B3138F97A92D26E551F1F1104
311
00D45AC71A9B9AC41A1A1B1DAEED0B0810638EFFB511D46B121C6FEA0F38CD00E03CFFEB9713FE1F9C263E4DDEC160D0497FA9A132BA608584057FB15380825DE6C7FC3C667EE947D488A09898D8E939C4953BF4EC9836344D2CC6B2971B2A21A572B06096F4982D2CC7232D46E8EA69DC83722E267754D777F97F96D5DA74
311
E1E75178084D0E70F12AD33E5F71EF2AFA599B2BEBF60A5BE475F444F240CBFE8143C334E7ED9150FEEFEF7EB020C4DBED388DD1D6A167A76F3CBF119B578AE8CFA7736ACAFA4440A1C47185638A0D2F3EB5BDDEFDA958FB13CE4AA4923D5BF840392D45544329525749734866684BF7F8D9D54D892E19BCA9F829A0F8BFCB
311
EEA6CFDFC61D74EA1A645ED7A1FF241739F15694BD835B66FEC5677E40FE69BD3F91AE402F036537218A401CB0828604AD189E575015C6F3F6BBC8AC79CF6C70653847254B31551EFCBEB5978B9DB85D58D0FA41A9DFE9C624834AA04949D24B5AE6D299E072D152D12097920F14AA92C31C3B97E28B6C2E6E9C23D63043EC
311
BBC0A60FDF5BD0C33C127EA8A3308B8B6AFFEB28B4455BF6E7AF4FC6222728357EB8E46E85053E6A8843AB23295BF838ABDA94658FEF3F832F147046B4ACD6F7D48E8FCC9618582961C898D1C7A253C91BFECBDA6BA18A1FCF70755DCCEE2222F41B76D23CA98D0CB3D95F0CF66D57FFF65E2A90F5DF40FC3187621E981BD0
311
BC1D992787212688976B94A8F0C6EF646624B570B78E068826F87CE27041A95C9A4871FF65CC17FCB1639629AD6A9517000D63AC231F3D741CB8430777E7ECF80CE7A3F73C0F162F7E56AA71F4DA80A33CD6ACEE78E2C11FAC03DAFCE929B106F8F6B3ED2DC71FF994BD9CEF4E9A94896EF1B6E2B7B4978168BCF0847A3D2A
311
4F1B0500B926E634B174548E9FBAD27153FB5FC36799B1E6C7C38A94E1F9E996796D7B485E635D5287A2AE76FBD11A341DB3F8F810385BB7296391973DC6C37C452A9305AEBBE0CDB6C566DB59FE60C8E94B1FD090354BF51439FFD1B48D725228FFA88C84F686F547107A7A235665A4593B7C34D748C1AC8D56DD5DA861EE
311
FBADDECBBD65117E65851F90351AEB65F0EFCFF4BCFEF24CB7A5879699FAC437A7AF9099186CF006BB923A59E37D7A36A29FD8D2CBB914A5E9D0A8FD212FBF796AE9A67958FF1D5D8B85F78F96219D4714EB919929241B6C018AAE0C02069F8D919961EC5DDFBFB7573E3AC8E08BFB7C8534BE6DE045B3CD63DBD71F7638BA
311
2309CAE398EA3A7D8F98BBBC7AEB367EFA5CFA27A9F8F2F52FE878058E6209C026453F8E7E8A237DFC389E9590F6059B397CFD65183BBF936E86896612A5B5FEE49DAC8455D026218AFEBEC12B3523A45B57B82C9C97E02ACFA1184DB18E48CF615DBF39C3CC6F0B4AE6BBEEA2E39D944E290302FA3DE33FA7E40296E2EF7B
311
F1CD855BBECFAD0FD622BEE9746FC4FDFDE545AE6E3BC234CADF83A0FB76DFB145BF3828AE3436368AC24989454F8FF70A177672C711CAA1A76107218CF948CA01F873520E7A2B118EBB161ABAD432932029628B6761590C98AB590C8C8C79798CE9F715BA696E839E9131A4BB68BE923F1747FBFF165331FFDD4D05997ACD
311
168F12CA75348DAC04C7F509FE83898A8B421181AF492861CE81E4A2DD0A30850CFA95E05F097FF70F9E777310D584A75BA7018922E271DAB1D785671157685B7D383D3E074DDB4F1E44EF04B07BAAC75A062077C54B9752C738C9D804D402E02851F3F89605AF189738C18C021D2139EAF72513824E10DDD3047BACC8521E
311
D7E98B257D1166903B1B08FA6F918FD7E162913FEC7D0EF4787E29C35FBA8C6E2C9C20E9AB30AE42CA2A01A090E7D010C1B5BF9CEE2A304BF3A987FB40D836979B79E18D70F257DA61E808472DD85B82761825779D6B90CAEB0F23360C6F80A7D7D77545E95B3DFF0CF96A827F9B5BCECD2C9698718417EF80FEEDEE938AFF
311
55859D0D540B7FE09435583A6F04874A0C7E8CF234DF4879722000167F5872CEC6BF3EF7E5A8CC8121E6A359227C8A29C95212F9F735BC72A887D56B8F309FC525BFB4FD767AAEC4AEFF249CFBBD2DE1AB9969A6155C7D8DABC307E47324C1F916C7BCFF40ABA5644E9FFB9238D19ADADA49D9610F01ABBA57E4DFCBDCCBB2
311
B93C8953206C91DE01B0E2651A6D6C31721915B31F7B7CBCE55466F6D70402788FA91D73BE4ADCBA99A35F17D6B83383704917D6833F0FA3CD45C926ADB8BC17999A4A0AFBCE2541F7B8CF4C2F5FBA611B3E626D64407CB32C122DFF4EF8674D6EDBB86C8F7C6A16D50FA685E2CCA34F8F7D1D8265BB0042E9D7F1F666F7BE
311
5FAA5184DF58E12122A42EF02F461B3F369AC746F96528AD208512AB56844CF75B97F352DF7995024FB02855385854F3798670D01CAC771AC3E1889EC25F61A20C1F8CAB46898817F9C47E2CDA1F286BF2F358298709FE567C91133E2638C8B53975E753EA8BFD3578B5F7186B7BF084EBA3F77BAC3132A5779902EC22AF2D
311
2E79F42D324E083386DAEE9810D1B44A5DAA54513C7A71E52A4AB9257D975B621308FE4D2141CC3DCFE946C154A3C1DFCCA7629EC69ACFA831634ADDA93C0388D2A9A2DDAFCF957C6995BCE7FBB6DC4EBAE79E63EB08E9A25F52F67076F7093CA545CA3053B5BF576DEAD4E0017143C5F759F32B2D6F145B52B67B48909B7C
311
7FCA6586EE385A2189C16932CB6DDFD9152AE317C430492A578ED27B72D85D40C7C93C097939E1B50F4D67F05334FE9DC362C30B7FF561B95259138ECFD9274C8D695C31B14D4EAA9F3D7FA8DDF652F8C5DEFA23284C799B7D94416DEE81E05A866302DC70192A5368EA65E1CED8BF107A1E2D3119A71E85DC1A7B0C1E9327
311
4CE04DD0F2ABC8AC7C987FDB002B6F81757B43502EF7A0D92E416494FAEEA4C9C090CD9557AA4D532F4996A272B94355C5A0E4974EEA9627476F30809B94D8D8D860062E02204643BEC7D0438AF800FC7E2B26955D595421E83C69E1A07E0E3122285835F014AD538188CF9737CE76D464A353FA55A001AB2526B84E985083
311
693BC76FE211CA1D000679C889E3C009832C87E1AC2EDD05C302557422DF0800E316FCAC86978A371F025A6C7DAA9F333E7BD160403A1A06EA75AA9888FF01504B0304140006080800897D985028BB58AF800100009E0500003D00000039314136333543442D304136312D343543462D394538422D33343335424336353545
311
31432F536368656D61732F436F6D6D6F6E536368656D612E786D6CBD544D4FC23018BEFB2B96DE15493C78601010A34B880709DEDFB52FD0D8B54BD70DF6EFED3AC0B12E6442E2716BFB3CEFF3D18E26FB440405EA8C2B1992E1C323095052C5B8DC842437EBFB673219DF8DA659866649B798C078B48AE6410122242F2A49
311
94AC7F93815DF85C049C8564CA0A901499DD886B2EB9B1E02448F358701A9235880C49A0119892A20C89D1B9FD768815CAD268CB5E0355B40B1E47F3E37A2020464BED06AA57CE8FCC20C3C3446D46761A2632A8C1283D07031EFF2AE7CCB1BFEEE916E406DFAC8E36FFD99A9D60A6944090EEDC3B670C7DC13DE86B6B2C5C
311
240D6E503BB85ACD579D513F1B9F9A69DC9CC22AFA80C426D40AF0B21EA168559156B6276F0F726A6BFF04DCD513A87A62CAD41FB24FCB2858B3952E3D852084DA25B9303C15687973CC8E8AAE11DF2836C38C6A9E765E8C1BA1BFB1DC29CDFE518C8B5A7655A4ED7E77291ABEB80DBD82EC866ADE1B8D05AF9E35CF09D7A0
311
61F38A986D9EC412B8F0F65E5D81534D9B231D1E5A8FE577A241F3A5FD01504B0304140006080800897D9850E336299B9F040000341300003E00000039314136333543442D304136312D343543462D394538422D3334333542433635354531432F536368656D61732F47656E65726963536368656D612E786D6CD5585B6FE2
311
38147EDF5F61E5BD1498E9A895A02398AA5D1E2A5665BAAF96710C78D6B9C87168D95FBFE7F81242134A968E469A4855437C72AEDFB965F4F53551642B7421B3741C0D7AFD88889467B14CD7E3A834AB8BEBE8EBED1FA3495108B3E01B91B0DBD1F3EC8E6C991A470F22155A72F73CBABC1D4D5921DCD1934863A11F990102
311
A6F61466977B8AC49FB13C174CB3940BE4504A22E3713489B7F82406516225536940BD88E4E552493E8E564C1522225AB0384BD56E1C195DC26FAB13882C2EBD62E1FF9E5B0FCC453132C99548446A1872B62267078F1EF14C3DB1DD1952DDBBB384AD456779F387C51992E0ADCE12FED2622BC5CB1952FC9BDF3295E9206E
311
961AB116DA7ACE45F76F07A26EFC3FD762FD7362FC3C0BAA4DB34C09E682CA5167BADCD16CF94370E331E2F1A3D852008AAD5D64BA2373478338AEB1583B905396D158182655E1B938D07926CF007CC7E85E6709999B0D3827C0BF406BEF55C68CF5579DA32C8C85BE03EFE788787E8FEC95DC85C3E31A615658D81F9A3449
311
9612004CE69CAB12531B15A887ACA642C110F8C1A8C1974A85853F407794695C905C688E69B116550ACA946B9B4785FC179E0E229240B62665328E86D5BD2C800CF5D80289F35AC25E3DD51508F4BF9A74A0F5A557BB3D284BC6FF59312E282F956A75C5D453906F48D11A876599E49425602400842995BDF02C4D012E2266
311
58F78A710416AC552831FDDEF0E6F0BABEBEA9DC36718CCEF4DAC5A0DF871AECBDD8F448F015F8DA113A473609D1751672B723874B2CAB21ECD6E284E51DCC7D1A47A00F60EC21DC4CC3CDC406DC03760A4E6C772F2F4D561A9AE58C4B03F5B4838701472139EDCB36819A66C472B52AB1139C648956F43E0DAEC067B56B08
311
18F5961D3D446B8F1E1E78C0EAD7EE02AF2895D813E88AC5014A7B436DBB20F778D40A1D9737EFE45B47D49CC8360F9966B15AABAC802C1005548A93EE469F5D55317CD8BF0AA86CABADB2A009D4D6F60CFE53AE370AFE8C45415B15D362A5A038E766E34B00F8C2E3E7098E2093B1C96349FDAEA158903B4BDAEA665F473F
311
ECE72186E3BDDCACCADA31839CD6D4FA7D47DF5469006ED340EBE71DF960DDEE88A3E17557039B58C278A1795BA8079419DA8FC5BA1BAA1A66238BF69C7B2BE4E6274839122B7D00BE8B7D52CF61B2D63216046008C8B330FC10F8907787DEF061F47965BBA02FD8F53BA12F9827614979F53563D0BB1AD67A03DC0E00E2FB
311
2CF3EFB457E70E65A3D7C78E7D700DBB45132AE9BBA5E468CD861408961AD8B00A55C2FCC677F4456039FD9F1907A5B3E2D0EE845FDBA2DAFA88C64195671AD6D282DA2E45B1F50A0D632B0D0B6718757DCC7C84A70A3656F222CDA6DBF07E204AB358961D1BE31E53A82C2C0D56DBF61A5608B5A252A932A1DC6E32462430
311
853353EA30417C8199A662E946A4EF352268B8CDB9A9C6762515ACE8E09BBC031C608A02C4BA89C9DDC074E46E0E26A17BCBD4ED43270D03E3645ADB81F6D62CC07A3243EB81C07E01681DDF2DB4730631E6DDA6CBBD048BE9F06AEB3CF06B31DD6C9575E37E9FF17161342C4C76D95519672A6509E0F5C4E71B4B19164400
311
59F57D0921F496237E473A83E3E4E06353BD9D27593594D7B6707C08D22FEBDFBFFE03504B0304140006080800897D98508DFFFC99640100009B0300004500000039314136333543442D304136312D343543462D394538422D3334333542433635354531432F536368656D61732F52656E6465724D6174657269616C536368
311
656D612E786D6CA5535D6BC230147DDFAF08799F5FDB600FADA20EA430D968A7AF12D36B1B481349529DFF7EF9A85A718860DFDA73EFB987734EA3D16FC5D10E946652C4B8DFE9610482CA9C8922C6B5D93CBFE3D1F0291A6B0D26A3255464182D920FB4233CC629881CD49C18508CF000E3EE309A100D61622AAB4A8A33B2
311
483F11CB639C545B0E1508438C3D3C0361192846DB7ACD198DF186700D182920B914FC1063A36AFBEE8FBA03FFD3CC1D1F4FC9E151A2AF59F628C5B7821D83FDFD3489305080F2EE04BF962195FB285E9D2DD352320A9E827AE357594914E42B1F5FE35F83688F60C4C91A6C946ED0668E8F244BC2EB0BA6E3BCCFC0B6A4B5
311
07F9F9F8D51EB315D9BA9E08D308E89F96931666E577837E2B4172199C68C4FE306156D47DF51C698C7B9D97FE5BEFE2190C3C38BB054E6E8163FB039CB4B993C80BF18D969203116D6BBD26238B821F9BB909AD6D9C71B85BCD8C33D66FEA3D31B4BC0AD45BEA46BBEDDFEC0F504B0304140006080800897D9850E1D6E679
311
51000000570000004700000039314136333543442D304136312D343543462D394538422D3334333542433635354531432F4173736574446174612F41737365745461626C654F66436F6E74656E74732E62696E5361606070B6707136733630D47534B030D535B174B2D4B570B274D335357776357076B5703176731602AACB
311
4D2C492DCA4CCC492C28484D2C4ACC4B4E050A82012F90744FCD03CA26072767A4E6260200504B0304140006080800897D9850F865834058000000680000004500000039314136333543442D304136312D343543462D394538422D3334333542433635354531432F4173736574446174612F53747265616D56657273696F6E
311
5461626C652E696E66558CBD0A80300C06F73E4B117FB66E451741D041DC5BF98480A492E4FDD18EAEC7DD4555D89EF28DF51A0B1BD8340C4DE7DD848B988C0ACF0649566493F2408C508DDEBB99D5129FF8F1AF8CF5B9503E20FAE5A16B5AF702504B0304140006080800897D985038D2338537010000A204000036000000
311
39314136333543442D304136312D343543462D394538422D3334333542433635354531432F4173736574446174612F636E782E786D6CCD94314FC3301085FF4A6489317612050990E30AC1D209242A06B6AB7329561D3BB22F08FE3D769B0154C4D4A1EBE9BBBBE727BF93ABCFD1161F18A2F1AE6335AF58814EFBDEB85DC7
311
661ACA1B56AC940CDED30F8C150E46EC582E332577C1CFD352EA7180D9E6AA356EBF14EF6344DAC0D6E2D3F0E01DA1A3C80A6D21C68E45FD8E237098C9F718F7BC07025EF380D1CF41639A4466C465920E08843D534DD55465D5964DBBA9AFEFDAF6AEBE7D9322934A6EBDB70B6FD2B2E0A7ABA6D2C7BD4C55526440C93998
311
85CAAF61EA2F957C6B9C148954325248AE2C1DF435A50E98266B3450324F784D4865821046298EB09222BBF0CB8B471C8C33B9659DA401F9F09C0462208317E8C97F6ACFEFCDDA4502A7F1921D39D5787E1F5E0EBFE8F518CB436E2E2F2DA71AB971C319B2220EE72445275F17F50D504B0304140006080800897D98509941
311
2C8AE6000000600100006700000039314136333543442D304136312D343543462D394538422D3334333542433635354531432F5265736F75726365732F43384443364330312D413038352D343942392D384239462D3537434530434538443346432F7468756D626E61696C2F302F636E782E786D6C4D90C14EC4300C447FA5
311
B2C4B14D5A15095669F62738714121F59688348E1207C1DF93400E7B1A6BFC6479465DBF4F3F7C61CA8EC206F32461C0606977E1D8A0F06D7C82E1AA5522E23B0C86604EDCA0D9A0D591A8C46EED7833C537D7BBF0D9CD03032667DF623860B0DEE4BC41B61F789AC914A61DF3E7B41B36D33C25CC5492C57A80DD89FD804D
311
681877D08B5CE428D771595FE6C7CBBA5EE6E757251AA9D53B91EFBC0B8C89E2C3222DD531D47FA4120DD0AA24D7A91602F4DD734AD4A5569953CDDF21FE891532317A670DD79A0459461E2B84E654E21FD64AB4BC55FECAA8DABAD1BF504B0304140006080800897D9850A233C2345D000000800000006500000039314136
311
333543442D304136312D343543462D394538422D3334333542433635354531432F5265736F75726365732F43384443364330312D413038352D343942392D384239462D3537434530434538443346432F7468756D626E61696C2F636E782E786D6C4D8B490E80201004BF42E6EE76F3C0F216234B883063108CCF170C074F95
311
AE5473F5C4C06E932E4F28601967600677D21E9D8092EDB002539227A2FCCB80E1168D80A6417297A89C5D6963B7129A0D1E8F2EE73AA7B62BBEB8B27DE50B504B0304140006080800897D9850BE89762363000000880000005B00000039314136333543442D304136312D343543462D394538422D33343335424336353545
311
31432F5265736F75726365732F43384443364330312D413038352D343942392D384239462D3537434530434538443346432F636E782E786D6C4DCC3B0E80201004D0AB90EDFD75167CCE820A4A845D83603CBE602CAC26799919AEEEE0D965E2E908050C6D0FCCE04C8BC355404EB6198129C92351FAD580A10E464065907C
311
8D948F8F166375F655BDC3FDC3B4E530A176BE7057BDC43B2A593FE403504B0304140006080800897D9850686499827F000000A30000003600000039314136333543442D304136312D343543462D394538422D3334333542433635354531432F5265736F75726365732F636E782E786D6C4D8CD10E822018465F85FDF714AE
311
2CD80097BFFA1E2ED1B1101A49EBF183E64557DF76F69D239BCFEAC8DBC4970D5E417560408CBF87C9FA4541DA66CA81345AC610B6BF1B103FAE4641C1A0E512437AEE6832F3985CA1CEFAC70E9177784156D11BE3353D8B5650DE8A81D657EC19F6BC3B0D988D6351F2FC7A794B5E7F01504B0304140006080800897D9850
311
942DC0270B010000550300003400000039314136333543442D304136312D343543462D394538422D3334333542433635354531432F536368656D61732F636E782E786D6CCD93BD4E042114855F6542623903331913DD306C616165A35676087777C90277C28FD1B717568ADDC44E8BEDE0E4CBCD39072EDF7E3ADB7D408806
311
FD42C681910EBC426DFC7E2139EDFA3BD26D050F88E90C239D970E16526522F83E605E9BA46127B3ADAA35FED8C407740EFD8B3A8093A45356C6B89078BA0E3227D4108F8396490EE31020620E0ACA84641CB4092A804CA08998D8C47A36F7D3FC3ADE6EE67933DEBF715A49C1DF116DE38D4F1070BD9998C272F4C510E3B4
311
0282E7601A55531071EE6E287D705A08C1630AA58546A6AFB590725DAD513295B2E809FC6104A735EC45E447F0108CBAD6CC17F6FE2DF433780DE1A9BC5430D25E6BF6DF5CFEAD027ADA80F20DEA42886F504B0304140006080800897D9850E3603EBE7A000000C20000002C00000039314136333543442D304136312D3435
311
43462D394538422D3334333542433635354531432F636E782E786D6C6DCD410EC2201085E1AB90D9DBEACE05D09878023D01A1D34A8419C380F1F82DA68B9AB8FDFEC93C3D7C52546FCC12980C9CBA232824CF63A0D9402DD3E10C6AB03A3397DD192872090D3406ABE7CCF5B5D18893ABB1690CF4DCF02282E5EA8A5BB96F
311
FE536F285CB347F95BEFFE81C9ED5AFF9D5B1FB575BB00504B0304140006080800897D985097D2E3C37E000000A300000007000000636E782E786D6C4D8CD10A832018465F45FE7BB7C4940235CAB5F7886521330D97638F3F1D5DECEA83C3778EE83E9B436F135F367809E4520132FE1166EB5709E9587003A853228670FC
311
DD00F96933120A0625D618D27EA2D92C5372853AEB9F276C49CF29D3375CF59CE09AE93B6EC766C0B4A66CD09CB191E86C5C8B92E7D7CB5BF2EA0B504B0304140006080800897D9850CA1DF9C9A900000073010000130000005B436F6E74656E745F54797065735D2E786D6CA590410EC2300C04BF12E5DEBA70400835E500
311
FC800F84E0B411AD13252E2ABF27A55740421CEDDDD9B55CEFA7A117778CC979527255565220197F75D42A39B22DB652EC9BFAFC089844F65252B2630E3B80643A1C742A7D40CA8AF571D09CC7D842D0E6A65B8475556DC07862242E78CE904D7D44ABC79EC569CAEBA537E3521C16DF5CA5A40EA17746733E0B6615DE7217
311
475F386F18B9481C510F1F021CD9FF027EA0E1F5C4E609504B0304140006080800897D98503DEE336E64000000790000001B0000006175746F6465736B2D64657369676E2D7061636B6167652E786D6C35CBC10E83200C00D05F21DCA56CA76D41FC96062B120735B69A7DBE268BB7777961F8D5AF396893C2ADB70FE7ADA1
311
96782C2DF776D7A97B5933C430F15651E5469C55D70F80A4992A3ADC954792C525AE70A1E4D6AD9816CC044FEFDF01FE3FDE907802504B0304140006080800897D9850D4B7209AF8000000960100003700000039314136333543442D304136312D343543462D394538422D3334333542433635354531432F41737365744461
311
74612F636F72652E786D6C8550CB6EC32010FC156BEFD8C68FC889301195EB2FE8A93704C44589C1E251F5F30BB12BB5A79E76353B33BB3BE4FAB53E8A4FE5BCB666045CD6502823ACD4661921861B1AA0B852E2AC0DBF685018BEAA11320C942CCEC6ED80843541998C1A2BD50172EF5580423C523382171F6AE5258F2131
311
FCBDDCB8B8F34595B8DC7994C4A8E521D532B9E99B560EE8D0B2D33C9F7AF432F533EACE78400CBF3254F7CD89B5ACEE27864995C59404BDFE6C174EF1A024D0A66E6A5477A8E9DE707FE9BA0B3EBF932A3329F1C1A59F8FA5F93BA02C5F3DF1C049B54FFFB8C64DFEEF1AB5096D73B8EE0A0F341FF91C5052E59452794698
311
6A4E947E03504B0304140006080800897D98504C43FBF1F30000008E0100006800000039314136333543442D304136312D343543462D394538422D3334333542433635354531432F5265736F75726365732F43384443364330312D413038352D343942392D384239462D3537434530434538443346432F7468756D626E6169
311
6C2F302F636F72652E786D6C8550CB6EC32010FC156BEFD8E0979C081351A5FE829E7A4398B82831583CAA7E7E2176A5F6D4D3AE66676677875EBED647F1A99CD7D68C404A0C8532D2CEDA2C23C47043031417469DB5E1170D0A235635428681D1C5D9B81D90B42628935163677580C27B15A0908FD48CE0E5875A45296248
311
0C7F2F3721EF62512529771EA331EAF990EA39B9E99B560ED8D0F07E9AFA0EBD5CBB09B52732204E5E39C25DDDF386E3EECA09ADB298D1A0D79FEDD22911D40CACC63546B84575FB46BA73DB9EC9E99D5699C9A80F2EFD7C2CCDDF01C3B4DAD13F6E719BFF778BDA84A63EDC768507968F7B0E18AD723AA93CA34B3527C9BE
311
01504B0304140006080800897D9850B4791198F9000000960100006600000039314136333543442D304136312D343543462D394538422D3334333542433635354531432F5265736F75726365732F43384443364330312D413038352D343942392D384239462D3537434530434538443346432F7468756D626E61696C2F636F
311
72652E786D6C8550CB6EC32010FC156BEFD8E0979C081351A5FE829E7AA3401C141B2C03553FBF2676A5F6D4D3AE66676677875EBEE629FBD4AB37CEF640720C99B6D22963C71E62B8A10EB20BA3AB73E1170D322B66DD438281D17175713920E96CD036A1D6297D80C27B1D2093D3D6F4E0E55DCF2217316C0CFFC817211F
311
62D439C9771EA3311A75488DDADCCCCDE8155857F17618DA06BD5C9B01D527D2214E5E39C24DD9F28AE3E6CA092D9298D160E69FED72D5226805ACC42546B84665FD469A735D9FC9E99D1689C9A80FEBF6F3B1347D072CDCE3FC61859968B14FFFB8C645FDEF1A8D0D5579B8EE0A0F2C1DF91C305AA494B6F28C70AB2951F6
311
0D504B0304140006080800897D9850007063F50D010000B10100005C00000039314136333543442D304136312D343543462D394538422D3334333542433635354531432F5265736F75726365732F43384443364330312D413038352D343942392D384239462D3537434530434538443346432F636F72652E786D6C8590D16E
311
832018855FC5708F828AC30669A8D627D8D5EE88524B5AA11158F6F883D625DBD5AE7E7238878FFFB0E3D77ACF3ED5E6B4351DC039029932939DB5593A10FC0552901D39DBACF5BF6C203372551D4832E06CD96C78ECD2648D5726A9C6CE6A17A573CA836CBAC74307DC7455ABCC65F0D1E16EF9434E37B9A81CE72F1F6721
311
E8798FEA39BEA62F5A6D80D34A34E3D810781AC808EB165328F0594044CA46540291416056A430675EAF3FF46953D2AB19F0129508A21A96F53B2687BA3EE0F68315C9C999F35BDC7987A6ED00EFE9D0373DC250204A22EED4427A6A4748DEFA33EACF74A8C69E15AFE01F6078CCFF038336BE2A77E02BE1004FFF7F5E7056
311
A402E378B61B672A9B7F03504B0304140006080800897D985040EB47C7F9000000960100003700000039314136333543442D304136312D343543462D394538422D3334333542433635354531432F5265736F75726365732F636F72652E786D6C8550CB6E833010FC15B47703E6A524328EA8523EA0EAA937CB6C889560233F
311
AA7E7EED40A5F6D4D3AE66676677879DBF9647F689D629A37BA07909196A6926A5E71E82BF92036467CEAC31FE170D322D16EC21C1C0D96C4D5877481AED5127549B09775038871E32F9884D0F4EDE7011B9083E32DC3D5F85BC8B19739A6F3CCE4250D32E55537453578516F8A11EBA71EC5AF2726947D21CE9810CF47520
311
655B75433D94ED65A0AC4862CEBC5A7EB64B8BC2E304BC2AAB92940DA99A77DA9E9AE6448F1FAC484CCE9CB7F1E77D69FA0EF81B3A13AC44C78A6DFAC735ACD3FFAE41695F57BBEBA670C0D391CF0167454A29966784B1A644F937504B0304140006080800897D9850E9A379A8F60000009401000035000000393141363335
311
43442D304136312D343543462D394538422D3334333542433635354531432F536368656D61732F636F72652E786D6C8550CB6EC32010FC156BEFD8E0979C081351A5FE81F6D41B02E2A0C46019A8FAF935B62BB5A79E76353B33BB3BF4F2353DB34FBD78E36C0F24C790692B9D3276EC21861BEA20BB30BA38177ED120B362
311
D23D2418181D1717E70392CE066D136A9DD20728BCD70132F95C9B1EBCBCEB49E4228695E11FF92CE4438C3A27F9CE633446A30EA951AB9BB919BD00EB2ADE0E43DBA0976B33A0FA443AC4C92B47B8295B5E71DC5C39A14512331ACCF4B35D2E5A04AD8095B8C408D7A8ACDF4973AEEB33397DD0223119F561597F3E96A6EF
311
80BD6D777A5AECB33F9E7156FF7B466343551E9EBBC2034B276E03468B94D15AB600D79AF264DF504B0304140006080800897D9850BAA4906602010000D80100002D00000039314136333543442D304136312D343543462D394538422D3334333542433635354531432F636F72652E786D6C9591416EC3201045AF62CD1EDB
311
D8602511264ADCF4045D7547CDC44589C1025CF5F8C5B52BA5BB7605FAFC37C39F11C7CFF19E7DA00FC6D916685E4286B677DAD8A185395EC90EB2A314DEB9F86083CCAA115B58649062F06E9E36A97736A25D54EB346EA20A012364FD3D5D5A08FD3B8E2A57734C8E70CB27D5DFD48039CD579F14D18C3F68EF5145D420AB
311
B22A49C948C55E283F3076A0FB57512C4E296663635D6DCD707C439DB929A64809A3A2589F936D367A33199D3E69AE063DC83D3D3535EF9E48796A2861BC7B26FBCBEE4C6A56F373D7707EA15D2A92602942F469345B9165087FC557F057B479D2FF8CB61201E443A86299B314C5F712D2B9EC447E01504B03041400060808
311
00897D98500473C55A06010000B201000008000000636F72652E786D6C8D50CB6EC32010FC15B4776CF04B498489A8527F414FBD51431C141B2C83A3F6EF0BB12BB5B79E16CDCCEE0CC3CE9FD3881E7AF1C6D91668460069DB3B65ECD0C21AAEF800E8CCD9E25CF8250364E5A45B483070362C6E9D77A87736689B50EB94DE
311
41E9BD0E80FA313E5AF0FD4D4F32936B880A7FCF66D9DFE5A0339A6D3ACE82997E56FB45CBA015F0821404930A17D51BAD4F5575A2C77796272567EB6AD46E6554743757A317E08752345DD7D4F8E55277B83AD20316F4556052178D2805A92F82B23C2D73E6C312FFBC1F893903F2F2917C59BE519C7D3837EE82184A2167
311
C72FE084E589F8137A9DD53F421B1BCA623FB86D78E029D09388C6A9C1389EF5C699DAE6DF504B01021400140006080800897D9850E83C69F713010000A80100004F000000000000000000000000000000000039314136333543442D304136312D343543462D394538422D3334333542433635354531432F41737365744461
311
74612F446566696E6974696F6E4974657261746F7250726F706572746965732E62696E504B01021400140006080800897D985098C33A15FF0000003002000045000000000000000000000000008001000039314136333543442D304136312D343543462D394538422D3334333542433635354531432F417373657444617461
311
2F496E7374616E636550726F706572746965732E62696E504B01021400140006080800897D985088E57597CD3F0000904100006B00000000000000000000000000E202000039314136333543442D304136312D343543462D394538422D3334333542433635354531432F5265736F75726365732F43384443364330312D4130
311
38352D343942392D384239462D3537434530434538443346432F7468756D626E61696C2F302F67656E657269635F706E67504B01021400140006080800897D985028BB58AF800100009E0500003D000000000000000000000000003843000039314136333543442D304136312D343543462D394538422D3334333542433635
311
354531432F536368656D61732F436F6D6D6F6E536368656D612E786D6C504B01021400140006080800897D9850E336299B9F040000341300003E000000000000000000000000001345000039314136333543442D304136312D343543462D394538422D3334333542433635354531432F536368656D61732F47656E65726963
311
536368656D612E786D6C504B01021400140006080800897D98508DFFFC99640100009B03000045000000000000000000000000000E4A000039314136333543442D304136312D343543462D394538422D3334333542433635354531432F536368656D61732F52656E6465724D6174657269616C536368656D612E786D6C504B
311
01021400140006080800897D9850E1D6E67951000000570000004700000000000000000000000000D54B000039314136333543442D304136312D343543462D394538422D3334333542433635354531432F4173736574446174612F41737365745461626C654F66436F6E74656E74732E62696E504B01021400140006080800
311
897D9850F8658340580000006800000045000000000000000000000000008B4C000039314136333543442D304136312D343543462D394538422D3334333542433635354531432F4173736574446174612F53747265616D56657273696F6E5461626C652E696E66504B01021400140006080800897D985038D2338537010000
311
A20400003600000000000000000000000000464D000039314136333543442D304136312D343543462D394538422D3334333542433635354531432F4173736574446174612F636E782E786D6C504B01021400140006080800897D985099412C8AE6000000600100006700000000000000000000000000D14E00003931413633
311
3543442D304136312D343543462D394538422D3334333542433635354531432F5265736F75726365732F43384443364330312D413038352D343942392D384239462D3537434530434538443346432F7468756D626E61696C2F302F636E782E786D6C504B01021400140006080800897D9850A233C2345D0000008000000065
311
000000000000000000000000003C50000039314136333543442D304136312D343543462D394538422D3334333542433635354531432F5265736F75726365732F43384443364330312D413038352D343942392D384239462D3537434530434538443346432F7468756D626E61696C2F636E782E786D6C504B01021400140006
311
080800897D9850BE89762363000000880000005B000000000000000000000000001C51000039314136333543442D304136312D343543462D394538422D3334333542433635354531432F5265736F75726365732F43384443364330312D413038352D343942392D384239462D3537434530434538443346432F636E782E786D
311
6C504B01021400140006080800897D9850686499827F000000A30000003600000000000000000000000000F851000039314136333543442D304136312D343543462D394538422D3334333542433635354531432F5265736F75726365732F636E782E786D6C504B01021400140006080800897D9850942DC0270B0100005503
311
00003400000000000000000000000000CB52000039314136333543442D304136312D343543462D394538422D3334333542433635354531432F536368656D61732F636E782E786D6C504B01021400140006080800897D9850E3603EBE7A000000C20000002C000000000000000000000000002854000039314136333543442D
311
304136312D343543462D394538422D3334333542433635354531432F636E782E786D6C504B01021400140006080800897D985097D2E3C37E000000A30000000700000000000000000000000000EC540000636E782E786D6C504B01021400140006080800897D9850CA1DF9C9A9000000730100001300000000000000000000
311
0000008F5500005B436F6E74656E745F54797065735D2E786D6C504B01021400140006080800897D98503DEE336E64000000790000001B00000000000000000000000000695600006175746F6465736B2D64657369676E2D7061636B6167652E786D6C504B01021400140006080800897D9850D4B7209AF800000096010000
311
37000000000000000000000000000657000039314136333543442D304136312D343543462D394538422D3334333542433635354531432F4173736574446174612F636F72652E786D6C504B01021400140006080800897D98504C43FBF1F30000008E0100006800000000000000000000000000535800003931413633354344
311
2D304136312D343543462D394538422D3334333542433635354531432F5265736F75726365732F43384443364330312D413038352D343942392D384239462D3537434530434538443346432F7468756D626E61696C2F302F636F72652E786D6C504B01021400140006080800897D9850B4791198F900000096010000660000
311
0000000000000000000000CC59000039314136333543442D304136312D343543462D394538422D3334333542433635354531432F5265736F75726365732F43384443364330312D413038352D343942392D384239462D3537434530434538443346432F7468756D626E61696C2F636F72652E786D6C504B0102140014000608
311
0800897D9850007063F50D010000B10100005C00000000000000000000000000495B000039314136333543442D304136312D343543462D394538422D3334333542433635354531432F5265736F75726365732F43384443364330312D413038352D343942392D384239462D3537434530434538443346432F636F72652E786D
311
6C504B01021400140006080800897D985040EB47C7F9000000960100003700000000000000000000000000D05C000039314136333543442D304136312D343543462D394538422D3334333542433635354531432F5265736F75726365732F636F72652E786D6C504B01021400140006080800897D9850E9A379A8F600000094
311
01000035000000000000000000000000001E5E000039314136333543442D304136312D343543462D394538422D3334333542433635354531432F536368656D61732F636F72652E786D6C504B01021400140006080800897D9850BAA4906602010000D80100002D00000000000000000000000000675F000039314136333543
311
442D304136312D343543462D394538422D3334333542433635354531432F636F72652E786D6C504B01021400140006080800897D98500473C55A06010000B20100000800000000000000000000000000B4600000636F72652E786D6C504B0506000000001A001A00210B0000E06100000000
310
504B0304140006080800897D9850000000000000000000000000370000006662782F32354537383630352D413143452D343234442D383531302D3137304239363030333544302F617474726962757465732E62696E504B0304140006080800897D9850000000000000000000000000350000006662782F3235453738363035
310
2D413143452D343234442D383531302D3137304239363030333544302F76657274696365732E62696E504B0304140006080800897D9850F270F1330600000004000000360000006662782F32354537383630352D413143452D343234442D383531302D3137304239363030333544302F747269616E676C65732E62696E6366
310
60600000504B0304140006080800897D985088E57597CD3F000090410000420000006662782F32354537383630352D413143452D343234442D383531302D3137304239363030333544302F7265736F75726365732F322F305F67656E657269632E706E67355B773CD4FF1FBF73E71C0E67EF7576C9DEF3EC995D46C6A1EC50
310
46649CBDF79E192942562825CE965D8A868C2842C8DE9FDFD1F7E7F138F7078FCF6B3F5FCFD7EBFDFEC41B196891913091804020321D6D7513FC77D8C5070EC3FFEE51B21F068154CC75D455CC028A3EA68992803810109FDDE5D5CEC5521B28A1B422BF80741695D5B529DA1C2D058AD2388BDA9F476F7C2CADC939304173
310
DBF48A452BF8A700C0C70C3D121C1AA15A5270C22E2B9E28763651F7DA0D12CE11077B2ECD0D560B5E3DE2368B1E65C5E1C87384A4CC5F2D9FB8BE39E9B77C753783A37998F5CEF1B4FEE553463245C9712270880DF339E0B882A6BA713D865F6F384C842D440934EF264F4A304F8DE4EEFA1E2BF5E2D91F5ADD9613D6E31D
310
DB33ED31DB1D7916CAF091286EA3D31B9CFECB78BB0060245B943C4C040119FF780A74DD308BA9D028678674EB5504ECF284EE814DAED07440BAF649BE4B55DA2890F4D73E2D489A59EE54FDB0A85B59F2F52C4858A02705C4815A792B0C4A996A2023ECB195073E115E3E3647F64243A8338F2000BCB58DA5692C7E7C3D41
310
3F963FEDF3CF00FBB0F831A9D51360FECA43819F527B89FA260EB63C5DA676830AA3626A3693B23F1A17A0DFFCE3EE164E31B5365EDF0C89EF64D8E38AB0BA9A1117D7C3A0EC44F44F4023095E80BA610DE336D0F99593A88BFC5306E72DF98F7FD132ED95878DF2964EA7E43071359FD83B2BDF9C6B5BDF768F0F3C0FC351
310
199526F53D9460A34511F75D1B63E488178569472C91A94497807A3FD4A390C6558F26D416365C3656DE6E769DA9D8FC73774E1709812842DD8EF96AED1960F79D21B395CDDFE6F92CB4EB962A4668C76990E2EF29798C8941D67DA50F4A5F947872460F1F6FDB794E8A29FD7AC0C0D6E0714339CE258FB17AE8535221E346
310
4A10F29A0BE5EEECEFC5675926A89F49EB14E5711894F6586DB5754EB4D5DA9C6437EBA57DB97A24F8B8A8DB295FFD73266CF57E82694DF5166DDF93573AFE9C9C5EB05F8FEF8E89E0A8917B0B3724DB7BEBB53252581EFC3E38166BA131A3A5B42FE2AD00A769BBFA4458D2DE7822F8C4F63D0B8E21B285AE13325F3410A4
310
35C648C9D91FDEB109E73CEDA7BC796961AF79175E1A3CE4C5E8B0D009B0C9E29EFD98BC8E97554E3D8D838424E270F7685226E5AC268E021EDE3522D583E8F20C0BDE2959EF5BBFEEDAB32FE9A3ED0E39F211A86AA9DEBFC68182EDED132AB8BB794442D2D7EA9F4D8BFF52BC4D55BB165124EE90A42D101E67BBBB292FFB
310
4F66DE5BF2300E44546757DA7CEF8932BFC9F92A0707953491A55C5A5ACEDABD9FA1AEA01BAC3DC5A24E22E7C47213493996EFBC369D086ED9397C9BA6C7F9855C7BD5E15BFC8C53DB3D2A4C5901A57ACD2FBDF4D1676E95338B2C2BCE65FDA4C64F5FEFDC7D9CA5AA1FCF11E193F2FDABF0F4916BF13FB916A224380E6462
310
A9815F2300DC49CC4DF8D055CEF76462F4B7A7ACA7365C2707891370BC1D0AA6203C44CCAB47084FEC057F27FFCD57F89B8B9852459798A675C66BD7CE572CAF71FF7E6D7ECF7BF62CAB7B3F1107DCD04DC55A3F9961700286141C94A4F771FEB2BCDA2DDEE0CB0BAE402FF1DB0100F8E475DFFFC074DDB4498AB7D186A765
310
4DDB1CB680D703D47CEB4E72F8CB13D86A4AA68116E26387B93FD6738779B34FEDB8E517EDF2BAF28D9BE93A1D3A164320E07D42E514725C29515FF361754213EDE06B079A2E99EB1CA82A02019EADEEB87B9AF005BD04BBCECB14AACD6B24EFBE482194A97DD32400685FF1FEF1544D1B14EFB1E7F08E6D2CD2AF52DE757F
310
35F5E62332EE88EA26417AD5C3E0E319D68F25414E6D672BD4522B278C57D18F0113921C71D96527E091F00CEB15AE23D24667369BD3CEFA10C7549D930890BA4366F4EBC55F01F746109F98ABCDD5A3EE06619C6AD78AB33E48E4C9BD21BF7478B385EC05C4F8987E2C1BFA0A60EBEDAA0AE0B015C2720ECE180FB6F2DEFB
310
EB822D96338C9B63822183BBF52FB664A7AE57003AABCE512BF77E7E31BDA2E739AC4C131657DDFE5225E900FB56CC01CDE808FA4A9C9DA16AC679656BB64796283D89812B8F91136AE18EE5EBBAF47A73BE3C153EB5D4CD491B4BFB4FE690A4CF9ABA08C0D8AA64220C438C96EA6CA80B58FE5761E697B3A292EB9FBDA502
310
FA863E49FE694ADDFFF9D62C520BDD1A22014147A0903A05B9B729F54272EF83931FEEC057BFF8C8055C279EAC5C0011804828734024F6CFA319C9CC6867C727184465CD9BB7ED386AFFD96B294A85E3802FAE47244602D8273615952B98C4F23F7EAE4463D9D638EEE374A20959E0FE519C4CFB0FBFE5DD80C2AA3F9DB961
310
D1BDE57E67C9BB47B77FDD74EE3094F5DBBE3EBC1FBDB7393F5116263009E2EFE1AF9A221B2AE234C902BF70E9F280ED23E73908361565964333A3F01D0B006AF32FB21AA1316744B489D5A198E85299241735BE559675130955C902A8ED761FC0DBE337A9F91919AF5CE32AF902ADF9AB2615E00E8A94586BA1A90839B618
310
32FF1BFB76D2EFADE6DB1BA04CCAD3DA649E7E2A0219F592E22F2AD54847EEA8E42271011E9074F8F3DD9FBA6CDF88FFC9FC7E811AD1CA8F4557CE4AFC7BBEDCF0114A48689F20A584520C74DA8127124B767E2FB91A6B186246727BE63C9445BAE02088D58B8EFDC0F1072407CD9B89A13F6303B4A928F593AD489B58E686
310
9325790ADC406036C591729FE14021F94B7796BB11848D463536A092A26F077F94639F7CEEE2A724C66EC885F4A24F8B8A0AC321F8FD149BA529460FAA34E4663C02D41FDF80BCA222D42F0ABFF8490F4FA74C673807C2051D8E467B47B616072860069A9A303ABA9B319D58404461401B0A0F9BE5E1E151C14BC33B32ABE0
310
3DDE91708DFAEB15E7C0D593C86BB7D7EC17BE56E57975F077BFD5525F3A1A361D584A75E08CF29FC7B44B2B3085014F3A5A14517377C3F6B8F37E59514C3B12F8AACDEDDA4DFC49BE5710101534CD6FB6DE15B50F11A09472AABA727F0C49D9CB906B158030065F48EB3625E010CEC1D511D0053474B11E6A4F01C0D6EF1B
310
ED3A944FDEC70E0DDCDC756C86545910E0DAE3BE3AA9A404574C2995CD5CAF9549226BC94B4F4F0F5F9086F418F6B32346464610D8BC7391D3C3A3CCF04CFC1FB2A3A3170E369511868F14EEA4E5E438CC73DB1F3248AA94B6B2FF33B222FF3D1E7BF146CAD229770158063BCE4F5391964DF62F7E52A7BE0EEA829C9E13C4
310
C147D6F93FE59E111DAB5E4594D6F3CD1AD375EE039930EFE5AF2BB2D41C83C7DABD8C659BAFBE8FAB392CA634F3D15C1D945DB4588D2B0824A4EC928AAC565557CA2F0DAA588CA5BE30B3A8004F7BF005E96CBF891D7F18112A3619FDF530DC8AA64954258E1811789B5189B49B4EB53F5F89F7D37523894F3EB57B373763
310
C91E502F52CC99EB7BDDF933FC324C4FFC2561DFFA7339FAFDD0A4BFBE6D3A8FF9ED1FC49898139864602458968913181918F719CCF5A68B2EE9C1FF050E34E63107003B8120FA982C21B30A874E4F5E4B38D5A8290C4B8D9BE48A0BE31EA995BDC37AC6DE90BA17D259DEF53605D55922FEB1855D915B659FBEB350EE0DFB
310
2F9F766E1C84CC8964B75D08667445EAB966015F63A18A9E0A325C1B3DC628C0D3CB60F767FA93CC65F25458BD23C3B312716E5F40E5858AC06EBA9AB14F95DB99147B832069201541D09A0D856E12C629CF32683760EE855537D1901988D5EBC156676C7DD51D7207CF3267AF1D76C2AD867315E44618015313A98B19941C
310
696FED3461CAA9B5415F918556D7802EDACEFD6B2E45853A9735DFC9DBF7E440F9319F8B6805A973BCCDC76C069A9144E51F187EDCC12FC31B5DEAAF0A76137199B106EC84ADA6B6EE697D4E6A96E007417F4E880E8B1E89B4BCE9D81EF611E2ED8F0C1A6C25F620FAFAAB656A7C42D464880E8AFAB0E0FC8EA38CA9A8AEEA
310
EE3E4648BA4680270A89743CDD3E6C6CBF34B7B640EFA285ABC7EA0A1E28F3CC963D114A80123EE66D0AF7D5380EB41909B605AB4765B709B808590458157E69BA1378FEC4B48CAF6A730E3BE3C5EF2DD1A5EAF94B1DDE50CEB55DDFD7EE9A16747FA4B223359FB1FCC69E1194892BABB93A1D5C4E807AC0EA2E30180811E7
310
7A2291F6E7F7FAA5E0F60215BC6024E48DE436C511F0628B8CA189982D4D83CCA17D305A7E923C37941CFDFDCD93ACAF735EF5F0E61BBD3E6C41A59B242790D3A3BAC7064DCD89AA2E37214EC839820949D5CAA31E240D2948E48F690298974A96BA9A8432BC90F5071D6537C9666EA4564796B7AFFFA548077BEEA75F6308
310
3435074BA182F3699557397F71548383FDA8CA34D99B981E72835ECDA5DDDC151315173D05A21F651AAF8524E88209E2E7A737ED1045800CE3390050BCFB8BE588DF111617874C62575039CA588EEFDEFEFE319B739DE2EDC147092A262611E159650E787917885EF08F1F51B8F2D8A71D60B58B190FEF9541A1BE94BC19FE
310
A50784DA1419FE4B0FB51B8D36B5FF8E1286FD8AF42B91E59A5F1CC4D60174E764045FD8C57B18209B217F89A62252BD20BE0E63E12B8E8F029FE19E0E8D0870F58721A557082250D5424F7909369376E41666C0EE77CD87CB283F661D5FB6D0DA023CB67320A20DC7BE661E9E1BFE5463085C557DA1FF9BE835733766C3D1
310
39F2CF9E2208873AD0EB4814DE9E6BF2CAF81614D4D43906ED1C05A3265CABBFE192770FC2F64F940CB6B17B5F166F133C9AEEAD2641807C3E69515171DD74C4A85311513D6EC9530B3B601B6BA3EBFF3B5C3D2F7D69765141E345F75433953D013ADDF8F6AA7DC3F4A7563FE5C7D367937E2900D7EAD0F9FC9A4A1A9B5BDF
310
1FEF08532660C01C5D6DE22199AA774383E306DAB87E301ABB7D213887F9869D4942D0D71E94B27EDF216A318BD488D45DF84529EF575AF3C3938C0AAA0215B01994153E2054A0B894DA5C784980633AAD48576957CF4AEAEAFADC7C587368551C73DBE1E57C58AC713303A8BFC258BD04B51724459FF9E24C03A81E0E0679
310
CEB9B348C0DC998FEB9C6D6EFA77D247CC8F92D3848599ED89A23218D0636465AD1CEEB7DC140D7426F83491C4E8E8281C2FB35240918FFECE880CA2A42D70E8B20B34DF5221C7DB0CF90ECCB9C745B37A47E9B716FF7A97B7A252C1F3814DC7B1E1A7F72B8751D524EF7CAE45B0C73B3BE7D08ED39781B380DDFC9AA4A474
310
9C9493DB5BAD07A6EA6C092FBD0E85DB004DF06B8C9D3089C5320187E4CE1846158C7EA7DDAE8AD9AFFF21AA3A1026BB06A259845E8232DEE62811A4DA9CEAB3A4887320B76E2AE5615EAB7BDF738CBDD01F1E64064BC13D9EC53576751CA8CACD58B3CEB0E6CA585BD089B2A59B9FC101403387AADBDBE70586B93D64BF3A
310
D4453EF9C3B6A93817E8346991798601344F79A83C51F3D50F7BF2683A3605F51A72449489E0EE6169C749C60B1035651103AEE24D24E51A759C840DD3FC6504DA6FE107510E447B43461C79D22970B75DE5E1BD3007D1AFC619A4A4A69B5626AF5E9B8374E20677F77E2F8E73DF868E8BEC7EBA7B6A75EEF7205E1AB9486C
310
B642741D6E03FF13FCCEDB1C4AC129886268B01CDF4B124AF797CF784F3C6DEC97A17D4B558070A0F1C04DA4FF9BDBF34159AEFE958479824B3F58EBD1E19088A2AFDE501B6F2052368A3FD0E650A179EFAB1561E1D27527077136E652676C3670F42DCB3352F48F6BC86D2C3B0051727E41A0A4DC6CE2BE9D47F5CAA2935A
310
3C0539AF080665997194ABECD723B08129CC5B6B21D2E7D54CD4D12610E7E9FB8306771A89576C7A982002775ED44F3F744CF21EEBB27A631671D921938AAEE3EB0D19CD1E083727F607823E817BF599DCED5394E37EEBC2E88782E638920CA641EF74D4CDFCDEF06F4278ECB18E31E7E9876F2D783C8BF429C75395F57E98
310
C2B495A3DA077EB3AC3C158608B6B57FE3EA48484D9A480096FCEE0DE880950E7E5A5714131C5C41AAA29FD19AE81AC145FA1B9E85C7169A5AB837B213493DF7E9AA4B5FBF9CDEB36EBD21EF1181B7CF7366AB2A951D01E37AF4EB835D1BE8C117CFBE7625D2EBCDB0B20C5A4B45CED0BCDE3EE8DA9DA78C2E21DEAAFFD119
310
7E463C33CC6A80FB785669B856EFF7A8CCCA2841B5A5369173320B1170C368B2748D81062EA0296E5E2D95D7667A4A46D98A6FF475C76AAB0A8C8D45E226FAFC9FE0133EA9F60111F99CA81ACE03A1D14C89E8B0D69079C91464FA1D99E651D0EAF606F345C42A8A1AA9BA391031582B96D5B4176A77AADB01F12FD298A75D
310
EEBB2C82F0B8650E880722F8DDD90C56A7A058E5FDEF1AC93545BA27367C76F5D8F9690CB6F8DAE141EDD7971F0FB548A2AE435F224D6E5954CA155512F7332029D5A1230854B79F258EC5FFDB09F5F6343A8EB193229B7F7E79B3E48F8E183860B38C8269D1B53738FF1E0BACF6AADA6D4869E9DE708E79B5DADCC09B1BC7
310
6F649731CFAF59A83FD8BAE4C749D66FA87A3810D4D62FFE826FA400C0F325D2BC0F3CA35F5847B82A2ACC7961745C823E4D863D54460AF792CE6F79B5C7A33B25C3AEA6CDE15A919B6367D781E9D44F61BF828672594A3E1D9EDD6DF179A81F27EAC05B936575D73E05C209DDD2115CFB705DF9BBF3C911589B3640735E9E
310
618FC9C36A7326C82B2205E244C55D56FDB9D5DC93CE958D4BF8174D2B3DA54CB3C09F2C2A6DFF73D23B2197355761AD421EC581284A7EF8DE2CE3497C0C804D49B41DFD6A7360844E5BEFFB495CFCDB97A4595911CDBA623274CE852B5E278AF0BEB1770E9D37CD977B2766A7DED0E94B840E1E95E8C77DE5CB6354AF7871
310
427C28ADBEEF7BA0A28E19DE9ACD75F379FE373EAE6DDDAE3834692F9C2B03B4FCA8FCA9ABE8EEEBEBB725B88A7C90941E850682CA04061A7DF0CE82ED49BFAFFD42C309818FAE14755CAAE78B0F73243ECCCAD7DF58FCB9CDFAE7A4D3E6671A613639130D056C8383C8F4FCF4808C331E544DD26E4755D09EA05253B3049A
310
1E32587CC25D72E073E2CD96D04A71BBCB0038FEC3F53D254199C3CDC67CD66640269431860225392B2CB3ECD0B4498AAE78BA1994246AE1EE78F2EDFB79F6C6CB6B5E279C4D373FBC21CB2698C9ACBBEB6A4BB6B39E16AB0E421CCBFC7654D81ED86022F9BB522146F9F4772E2D0E4FA70120C95A85A417BF5078B232F475
310
4363EB1750B2AC2148EB46B1EA72AD9B4D23ADCBC589D70106C3EC2ABEEED84DFE28E718C6C83502C28E9FDD3B09DA0A6F6F7B72B706A31C9E2A331EE70DA56A083D2177BFD63C55B11D8D949FAFCF90B23A1E24B9B5018B9A17E99F2890EC302F330FE7936E2C23F0D237EC8916F5166AB84B62A21BB0B950146962D754F9
310
2CC2C8877BED8FC7B7B25726DD19545392570B3A2C66B58F027BEF412E552D12A588C4A3CC5C3193FCB3485EFFF700D0B9EEC077754A33DC1FB9E25AF814628F91DDFECB667D3F7690803F38D13F8AE39353523BB08FC6760144AFA2CE28236F65EDBB3D5F59A57D612B99E3D7E5F8A851666BF9B5A6658EFC96EEB37A378A
310
BB0EB3FDDF1303AF32C41BD1C8560745D7BD81066B0D6313359CF488563D3BA3F8E2185D1FAA3EBA1397C9D0E3DD232180A4DCADB6AF25DB3AC3CC26589C8239E66E81547BC7E2F328F9884764CA37EB5DBE390DFC03A5246B456A7C3684C4377D0EEF9A350680FA9A077E8B2957B489E09AB1AD41316944C2254B5984830F
310
691C93CAA767EECF976FA5647538830B5E63236A6F0365C1E0F3E327F24FE35EDDBD7360B0F7374837409F7A6311BECC12B7026D4FA1AE204FA3F5FE904B1F420C7A9044AE58E403E7C4848E7DA25DC9EDAC79DD756FAA26B9EA83ACE8A214A2612A22AFA19DAE7DBAC5F8CDE1292A485F98DAC731A29FE01A3966E96BCB9F
310
B5A4C8830E1B9AF0C54B87FBE221A097036E5D28D1F869F810C06A9BB0AC0612F69AEBAF893C6E7AD59460208BAB3A6B09CA4F6BDDAB8CF0D1F84B72487498395A70DCD754796E271099A567A55CF242BBED64696378BB6CF25EF0FCDB589F3A82F1116D010A9AB9FA4358809EE0C973A2B4229BAA876A70B03AB49CBA7FBE
310
71DB1832FFD32F9BF2C8E98075CACAFB36921235D0F552B6A67E94E094097A5D7DF681B40623DA535ADA7A9AD8E9A62407D7C9A5AE51D62A17A83A23728DE86BB56115804D3F2675F2C6B87541A0FC497BF0CA86420F558C9859EBE9FAD62747E323E3AADC03FDCDDFE7407B09DA90B44E3185723C5381EAEF589765E2F7A0
310
99BA46695BAD60CEF3491B8A171F5F56444F7CE9455312C3498C74173AEA0214EC029833B34B650CBB5A5508D5091665309642791708ECF27CF11DB3D797D6CFE474453BD4BFADB768094B2147814D81C7CBAF8228DCAF5564B5891F5EF6A860EB2E323CB82AB868D8EA048880D63B0DE5341F1B3D53297B928A11E15F25E5
310
148990F710747C3509ED14909C552EBE3973246FCE55D00564D8310BC3EBC5085D08D806799B77D6C57FDF5E55837F9E934F09C03C729271B64F12D0A9F9E938107CAF7BF1EC8CF1BB9B42363D33070F4CACB425E605DDB0A34A12BB936DE286B9887A4E2E558F0886498BFF49C311D96C277CF6A9FC0D75AD0ECC5226D7E0
310
E3572012E56D7FDE4410CEC7A6D0F997F225A2055B8B92E3956E875AE4993CB3D4C9063AF98FD45E1BAB165640A43439A2C9181A7C355B297C0A0CCFFAE19B6FA3C2BA238A885FBC98B8F6DAF4B94B97304878DF4D8BFF6A4AEDF79E90ED4E68F00CD7299F4E0D83E35601AF0CBEF18C1E870E74758FA91F5131075004DB3C
310
FCF09AE1DABC11957FD9808C92E8A678CE9DBE40DDA0E0D1D505AAFBCBA208232BFB6FB3704E8985E61ADE53DE74152F5C7DE74B1DEDCD37DC3E8FB30D7EBA8B9EFFC3606BF90B8D438279CB7709FC7C00D327F41817EEA71CD9E49FE9C8C9A81C70915D9F0F15958EC5AA4C3BBFAF46986B90F188BDB24B89DE3C6F29EC3E
310
6F66D84856EE96A35E657CA41B41EFD8DBFA16AD6E91439EA92B40B21C053249F51AE50EB0B24C770FFAF40DF12C8436366819C48E36547D4E7B72FE2BBF10828583057814A668BDF183F6B2E58DFB151103E56303E63D00F39C27C4661605DB644D19175D02E3F0241E8FC3458D17AAAADB117CE9EEA690D0DB01E634878C
310
04C2C9310B69FCAB831151E3AD293BEF6E46B0ABCECB50F5939B39C613D41E81FAE8D34CAE3C4566B761D37185FE864AC32FCB71AEF39DAA5BAB88609BB980CD2F07A8F941653B529567726E2B2A58D079DD57E1E5E31426CF184A04D7B03B985F276D47406AF276FE32E3328BA866EB1FD39BEF57863A317634AA5FE46740
310
9B3873F5069EF0D71AF00AD189D17BA1974ECDB2D623E9E14086386A6AAB5807825C37B015BFE892AFD154920EC437EB945D958E18622E1E0FE2FA06557CE4BB9BBD05A2D40E774DA2B65473791E314B7D6C886820B2FCFE4AA272B3B8B15E7344A145E8AF919B5454D89D36D413E87211186BF6F645E5EC94DCCE8E1C7990
310
22E4EC9BC86D7A0F2AFB1FC4B2CE48F84B3F49ECE65BAD24CADCC07EFF39AB06BE9E6B27A059938EA7208838455383DDBCFCD967DDE4650EF92A14FF933C975DB20BD7FEEBC4487576485963D757D16340D9599FEB362F775F38CA4185A86F74B629C81B133644A3B18FD056E997E0734F9BE26D11C0AAFC669E2AC9FC41D2
310
81F8B2E1C35AE27BCE05F3DA295488096688719D974DF1B5D182DB7792288697F8763CFB43562C1CDEE11C4AABD5C22B6E33F6F389CFC3477C5919DC0D533F8A7A1846B7ADB60ABDC26C43D0CFC8910B7C15EE22675BD02702ED39DB77A87A192CA7A543E6205B979B9F5A6B512A3CA799E198B2D5797C0AF8D1D872CA455D
310
4D431A7879D4DD76110B5FF7F4176B54477A9EB5E4A5D11214FDA585F0382751D8E2582BA5D2075053298FEB8F1537304E32CB22C2E2B693DC0A760B1DFCA751BDC445AFDCBB12820ED85F6D5298933C7EF1211E9E057684056CDA3FEF3BB6052355E162DF27C59E965A8DDB7F9437EB72CDDA3A090DE65A5B2F50326247B7
310
EC67B73ACC7047FC9B353D6EE990F772207C6EC52B39DC2F3C0754821DAB559F7C1809C7D0DD5B0499D0442E0A6E391B3D5DB46D11E731E6794EC77523FBDAA242ED67F9FA1FB684255671F63C9BCFE6E7E896D51001A6113EF2298BA494E0B0980D1FA5B9D60796554C02256B1E0345FB7C6186B6A19D2DCA270416262845
310
FA4F42DB5D9B0A0B6F07FCA2E56C242522E001E0CEB734AF310FC8BFB57E38E03AACE93B3326A2197891E68452B26A6307FDABFEE0223D3C03C3C73D2D5BC054C8311F12004CAE488E5C29287F8156A2CAA4AD0D7BE6B97264E4139F437CE73ADF52E5134C52B819777C18B323A5924E4F67AFD13B1CDC3A61793A79FAF5C0
310
CEB718E441071E797C6DCCB9EFCF7E4A1E9F3DF3C2F9C9E8294E9586868788C972857FB0556D7A26941A7EEB9B580AD78EC40B85DC906B4120A563CA3B87797ED612D3B035962BB75F6515A393F4CB057F564CDF54F2E5A024514E6A1F901DB80C7E70B1FC05E356A7E72FABF4775B3E3FB8F70A2A8E7B6A94542BB3041579
310
78CCC999E707A29CC795E67A59CC546A5D47B368954CA7B6E75EC9E1F6FC73CE3B4F71F8CB1A6B15923D61EAAEB14626AAA9D04A26EB9C66CD1BE86CA31A5D8703DE04CD1EBCE4F5CCB62F93909AD11E55799A781A956ED27D3E738F4538CB04ADABC7DAEF20BC35BA6A90BCC1DC61BA05F20D8832FFB9BC9B15E2DB838A0A
310
FBB7E0C82A562127E0446894F427794C3037186F622BF24DE1B00AA10A23BFA47B2A180D6DA5AD6F7326FEB8C100C2D7142EB2A0B2A9D1008A09BA343D70E054AB69E2A7EDB783CBD92537FAF4A44D1296AC2792729104B3276C276C951D0CF3CF3F1E6B017720A7B8505A5FF9589365979678C36F1BAF759EAF57C60F1FF5
310
FE9DCF5F8E764FF25A2D06CF25117A8FED51884C13B2B750DB0E4F5E3D64124FCF11F0AD8F1CC3B3DA4B38ED22BF1CB2585EE6BFEBBA63FBFD44F9537B9B37BDD6B358720F98A8125AED4349CCFEB0E135F19E208A04CA7E2B10711185D72E381F448036EF57C9F874E54A971CA37A639E986AC0226DC5AA00D5B14FEA9192
310
234B3DE617814FC221C92F33F1D392F297731B567FD98FD91D989379AF567A65B8ADF177591DB90FBEA99BF4ED11B16E50A0AB1DBF1156D034BBE04D69D08F939D8E92BF525A1DDAFF80ECBC95D8F45D3FDD289FD23F7D8B452F8EBB34EC082DEEE68E18EDDF072060FAD2AB1504DD4879BF67099FC58F6E9DEFBF645D1633
310
4A3E9A127C6F1AF6132CF287E433B43A0EE93812B4AA0B194E03EE3FF91EF9C6ED0074A2F6EB18A96A7C9890B1FCDA1F2095E944DB911ED54C60DF16FB74C8CE9BDC7C54C4F14078CF73C2FFF1F1BBCCD7CF64F71407EA1683DBC410D226627F66E509060D5C0AFD611DE681D509DB8DD12FB1265B03C6F5C55FF4C30BD941
310
87FF692B4F152982502F193098A789526A038AB529A52BC0DC4FB6285CBAC10A8B8DB75DCD9BDABBB221E27D1F8DA9F5EE5926A1C8AA9BA9BC09239C6A7F12914EA3B59EFF7AAEC3FFCCE56F1C5C2980AD072793527565E774F4631DB178CEEC691B1F367BEA0CF2907E1D6B854D527065979DDEF002D8B2ACEA7CE21AE297
310
737EDE1D45B31233B73FEA35BCFDD0B09721FDBAF6432681F2FD10C3E9EFB246FD6E854B344ACC9D8A0EEF876A7314B49B6A499FC650B099D650DBFEC7638ADFD245E2B7839DA5AC5F7D5623FC0ECEEC8653FC9B2BDD1AD4D00A566FBA7186DD3C9CD26512551637498CADB950FEC71ADB9A5524285DE328B8EC7EC75D2345
310
AEC6A27C42AF6D9B92155315C80DBFCABBB7DA0FAE425C4FB896B15C9BFAC4FE67DF5A23D30C93DA4D8F36FB15D100050DA6062E22AEC5F4DAC4F6FEEF97AE05DE63C6D38F9E068A20BC5E3B6BCD75320C5090924E7F93640A7735B1A43451C2D91EE62C6238B797349E59890AF3A520DF4A87095F3ABEC2E61F0593416CE4
310
6CDCBE0E00E2523FCCD04408588B5B6C9DB6459C786CE378770B54F51DA3A5E1DF2A3349BEAAC234A6CF8993B598B3B25B4B113E353A4D750FA7534749430F3EBF2512E7EA3FD43C6AB9A1F765A58463B306721A15D224FAFE8C6F5E3432D57EE697DA0DD5A9D4866A8BCCAAA9DFF1F06047851408FEC060471D0E3EB86BFA
310
F46E4B5E60311DC3E3CEA147C75CF971BE74689507154FF2D2E92F15CDB2B9182B11459FD8ACAC5A85F174BC94A7F4EE4C4F5CAFA7C02E37BF0BC77B7DCD0C047BC316F562A01A441AFA7931CC84A28CB9F4AA367EB515778F29BFE61195FA671F4352E5E46E3A64773F1F76EE5EB36D7BCE9BCEAD837A4D77F8DB8C92AEEF
310
6711920D7C7D0F76B0FD0EB7AB83724CD35BCA7D36DDDF5FBB7FF6F04A91F3E2BB3B8F1A43CD659639507FF6331C5F697BCC782AE57D757A27D97F1AB9E0AEDB43F92F1B2AACDF5FEC8ADBAF9F814E2027003BA2F9E144B1938A7A04050AE5D953B82C45619165C813A10E76DD6906B3C16438064D14CDA713AEC420034613
310
E1AC7241904A49FBF87409AFB1FCB9B72FE7933A87D8FBEDACECE4EDCF6A4FE9FB94D5DEB74FAB7CFEAE17EE965DF980DCCA2D04134994F9A2E94D2265DA4FE6AA7B7AC15FACAC2B5ABBCD7DFF542C5314FDAB2E1B9D8B65220B8E2B638BE008E8DCA22678C820C5053664D15E89F2D735B51A84955E81A443545E9FF787BE
310
0FA700A76D136C27DA179A7C6E8939E01BE756E19CB292798063D8B97F44E8A27BCF3A614FEB8BE974A718E86F7EC99B53CA35FA24F61F2B07266684623A3D4CF073E511F3A10A8FDAFAF0078C577F4DF9D339FE7862E5FA47CF4344209E5BF76D783B1B48E152AD281B15FCB934DCDA49CEC5706B1EE8B460F435324A5CAD
310
154725E21AB8044B75A557A79F6C807B9340AA3D92503E866F4274412926C8C504E4D5EF8C0E68DD0B028781A6B4054F11CF18941F101C57CCC796773ABC8DED9CD91FE5788806C05E548895354AEAC96546D55B0E94A59F148D061F42AA398D822CDECA4CDE79E13469BDCC44FDC990F366BA5978C15F97ED80CBFD73B0CD
310
9B8B83A4F6845BDFBFAF034019473FB9A63BD55D3A4A7284757071574029A4D016DCCBE95DD679EF3C4880BF169422F8C89B68A988D2B13793CAED4F74DE7486C72DC94DF46B8E93D8E02EFCB1FF9B3BA10C8AE7F653DF94F4AF466CDDCEF5776687F7C4C14B63E4EED1719DC2EC482D7DBCC7AE518CDE3D5FF86D39000EC3
310
673C0044E1D308BF05F74D1B5F033A7D1BE7F74BC55BBE3E4A20F920946CA0271EB17BD2B80E5660ACB8A29A79F5E4BBA49D4D945B6EEF4A7EFEAA65E5555BBB57A7E15D2F83C69F30BBB978D2B39F1F26FC097424D39BB33CA3D87ABF64E307938B685BAD44F71556A30B7E712CA4FE600613C3E554B69ADE949A7CFE214D
310
F1FFF05CB82151EC6FC31950239F94CF7AD39DC473F6EA356E5EC2C4EFA04383CEFE985A127484366FBEE3C0EC4FEA363E4F6632AE781392FD45D67B63FB8DF70E82734F431FD3443172A0E30A83D60982D55FA6A2CF86DBA8382502ACC6CDEF3B907982EED1160E14863FA242F9757347E1544275CCDCF71ECD5F8621CBEA
310
326B8BA884AD7F825781923E66971F04010D574C541D8427A438A37EEF8AF88240EED7362C953F5A81DE2D56109CDE2524EA0F5D2F87308C0C47BD97AD605878AB8589E17CA83930CB5E0DCCD75853D68B1AB136594926DE426C367428E9334AFAFF90ECE221BB5DC9E5BB53D2CDEF954EAA9CD814F0E5725F1965DD458E5F
310
8487683AD86B9D0076BE3EE91EB1CECC5331A67A3F79D8B27587C12EC2A6A70474749F27B4C0BBAFB94B34189E88DC18964BE4121B9137FD516C7755356E50D6714E31ACD222621EBBCD1CFF81D87479056A9DA0E0B8EA19D24CF937DA89F78E8650CCBDC110AAB6C4E46DCBFD0446BA9E2060E81F314AC2031E88135E5476
310
AC0160EF5C0DD2EEF1B8B5CB2D198BE9A554A9093B5F7D7E4B5407DDFCA1D9C152FD97F55BFFFDFE802954DFEC8995B983E28AC92F1971E28F531DC407A1280EB125F64A72E617EFB27DFBCEDCDA2D6F2BDADA36873EE46B9BE1782998C63DA7182BC383FB6FD15DA472B175D7E8B4FC88F38D6E07FEAA3FA3CBB8F6B449EC
310
F14D2175E5C5CCA3A42ABF24CA6C9395AF74535F4DDB38CB84F56614B0FD32D7E19CA5CF988DB4449C40E23DF2B16772594554579094450F56F253CD25EA7F77366FB1CFE79696C428BB64D5A41E986189427E5E4D7E2DAE3D5BB4972B3DC44EAABDDDD63A2264ECFA5C786EB0EE1FDC5BE34FA0F08376869FD1E61EA06CAE
310
15191135445EE8F0394161C3266A596AA035572BB0C8876180D8B9C77D307DF9DCDF7365ABDA6F3A2366436457A4DFC1F259666569A9E4A79C817BDD5610E5200FCE894A358EC72858D50EF67545DA81C6FACE3D457BAF70367E1E6BDD9A952FB4F56247F58F523B97E640246051A72F79BE42FFA0B3187F63097F91C48B86
310
8586F714B0EBD5A00A8412C1236E1298F60C72BE6C96B82B404CADAA304AE9F303176B14BA53FBC2D5E86377E35542019E24D97B96A49B2C0E5006E7795954DEAF5DA58958839043C6C70BD3B1B33B6DC5C31316D8A6923F142E26F6711A2258AF977DDF1F970ECC4F1F2B434B96D81BEB6E89BF3BBB3C7C8CC80505070723
310
D6D7D7D3C8CA27CA164A26024FED94B12A86031867241DA53D929636DA600F050BC40CE48B8BA03D69224720DEE2ED2127390BDF5E6EA64527BBD4C4C63FA76BB801FEEC0E61218EC98A8A86CD8313781617877E66692839B9468CF4DB8E50A73986E558E309C0D6F676F921BE02F1185454DC75B111572FF9D27D85EA14C0
310
5AD7271225B391C4275659CA4A43759D0BA44639BE4C30A84DB7F67A41399FB95CBF923B1B1672ABC807C1590557FB18D811983FA97F5E609516D62281D38B1281F68FC75528C35E4CD7DF0F7DBB5E5DD69C414EBEA2F4A5B241B996BA77AE6C772E367408C633EA3E438B68563EA8BE7667F3A4C4FDEEA52ABD78A2820F44
310
3B7914A15F180018D231E64519C56A12F6CA7C8DAE18F06F6B769DBF92329EF6A5D18FBCE600F36BD8E8198DE5CDAA96181F3A756EBA5501CEE58F497EA4F418A2B82565B9BCC611713C0B708CCA1F398B78C5F7D03B3437CC18F13061F55C7BEDADD5ACB1DB0E36D3CE47FF6EA1A563A57E9649EA5D14D1A50EAA45746338
310
1C073777EF1600607BAF6428A7DDC079D47A204EF1E1F1F0589FB054D45E02CE623B3823C317C601E589E22B1E88B448524B86A82828E32345EC18AE17214B42F8C41C6D428016D9BA31DDCB47572561E5A402E5BA4FCE55F78AF7268524AA04130F3A20BA5D1E9F9948EA48FC8F5314FDB35E21898198060034ACE5E3E2BB
310
CA34092518F275190AF65F45867FF0900AA4B81F25427414C372BF51DC29AA855C5428EE1EEDD6B849AD60F6E73475C2D2523F8A2772C840A478DED18A8C5C91B085F255DC4F54EA7AA8947354FD17ECF8FB3B4A0DE7B483CAF3A1165EE05BBA413E5C1FEF3DE1D6B8F2F3F3251C17D9FCAB48A9AAF63AC773A0E413BBC46A
310
9ADF84A566FC920E4D8C52C9769EE3301CADEEEDD92B312E02E2A7E35B7F1E7D203FE5A7D75578B06E99D0E46FFADB8FDA17ED8880390DA29094202D6F645F76F6F96409CDA05495A96E84B04A00D1A6C6C81D7F3DE9376E828CCF144EE50E364ACCE7237EA0BFB5607ED1AC3CFE73794E5B61739D14DF1743441B1AC98F00
310
ECEDE9E7301FA29755FBEFA68C91EF2B314CF510537EF1ABFC9A762496280B546F5EDAAF8A5B387D469FC9A878A92828C88608453ACEC6094DCA54111E7AD5B2663DFE2DD151B7F123B9F4FEF8EE36AB125FD7AD52A59B1B765B3E3F73E3F73DEA93875004D2AFFE3CDE9493B87A9904DD052028949041A91DC0E1BA47BA71
310
4343FD5B25E0A6A09503AFC17C790058A836A324FE31D7893512E28230332F153181C1E018E1124EBE1BA262AA428A518237D1EA7275E48C5C561BD19ED6912EDD8367DA0F31E40EEAE9683DA9257525AEA7B632B97119E17145A90231768A4F3B9120FF32E8319B015E3CBE26F1A754177D8185345817C096B0CE443A955D
310
13AC15E1FB5DEEA0239EC32A3C92241A237B0B02FFCB4F93CF2B02570C8D192E2F2A68CEEB42F12E6F8CEEFF46C251E22B4341C56FB08CCE550E7A9D6F4D6564B9EA52A83D5BF2C6E03FA19D2775E15A8A7ACF30A13C259EE7F5EF2AC3BA354F1500E1A07FC63FB4686E2F12EC69719F9ECF5FE3F35598DF2CE944008CE78F
310
0911BA5BE5D0A34E0098FF038669C26030BA9B300303039852A8F6F496341737CA7E0D2E3AAA36DE0A70AA7D9CA0D54D9AD84B18A44C9E625475E1C97B93BEBB38DCE7D227E67A2D00F531436136355F243D1FC0D712C5765754FA22FCFFAE97919161F46D6E61ACB37D83777B385889770B50765B127768443A5C4D3A4E35
310
A3151111F146B7CA116F918A049F1C272F2CD7976C69A0068773451659A97E0F4A08FE604C3FF6CE7385DB19F4D3ABC8A0D80DA8A42096AC377DB49382B36E270B6FA7570188B4B7D1DDDDA82ACA487CCA5D38BD3BD039ADBAFA4ACFF27809239B722081E2EB9F145320553D183F28471C388BC8814E5045676767AB58A8E7
310
2D1CED2CA731379515D2E533E4CF0B39DFC625F97AC4836831A4DE330E87A8126FA17EBE583D614E71E22A8DBF2825599743E0640037303E8E1B1E8EA4E1ABFA4F62907B5E4E0E5DCFDAB417C36C6848A2B8D15F1E505434C0707E16B1CFC2A1C36A42BBF55734F8F4301DDC2A5110CEE8C0747F69519265012A2174BF4E95
310
5ECD4FDE095A3ABC70536B7AD0B9D7892F81287D667C108703C9B66A221E9A0929D030008F77FF6F5D2108EF5706FC87A3069B976F7C9FC3239D13D283CDEA83597461079FEEE049B0F392889898B7D87D31F8D60ED7B56B91823A8E4EDDB36C6172ECEE42BD42B12CD67994FA0F0DFAE9389356F4CD4425A4B8AA55CBF7EC
310
D585C6A2C2316791E43D5C06841ADBB226A87FD61515FFBB0167B74E56BD7F3E90A57A97FEDCBDF483A0D6699A8C0849CAEB4947FAA90D8E332D9DEBD9F4738C37DA0CAF9CF3DAA68BCB67C420459C7A64498D6E848E5CADE92BB6901F607AA331104A67F7CD650EE169B1DAE94D2C31C2F993632259B6957E246EFE4C5481
310
107B07118607700040E5812A2A2A38DA0076875258C753F60E0F2662C748EDD5F3F3686B8FC3BD6FE631ECCAA1E8B1C1E565AD117E54893E79F4672E32F9E46B2A183DFDCF3EECB4D4D077DBEA0DA254D256045109670050129E9B9B1A9E4A11344D61497A992778095151510C4BB7EF2009B63AA4360635312E4CF668B7E0
310
D3D85A8688E2BD83B569439892ADB63461930D428E0DE42E4AC57CE48DA5CC1449530D8BD3D6A0F08DF20C8E8F570F2CFFFCEA286E30969B4654D498A58D9DA782E19FE3F002181838925592C4A1EF0B332D88B61A92C644547BED490D3A42CFFAB70E36D961F694F6307F72FF15A1C79D5B1B5CEFD353D9E2B52566DEC8F8
310
F09CB3E8359C0F68EBBB7898243E34E12A015B2685AB303C04D3A9E00671FF3DFF0A184E4A2ABEB2B666AF5B3A209C73D8EF29DCDB069C9F391EEE9DD0F74C7BCDE16F8F02E3B8816122BBEB50665775B600549D8BB33A54A6BF940C028118BC6878C79958D6784F9DEAA6E26748386FFAF8D0D0101E2847B6563F5D8DC1D7
310
8F787BE00E2C941AE12148D4A81599FE8F68D4DA5CDED75530ADE138240300EE13B0FC13A1687FED6774662C05A2B7DFB186732F0D7A93545D8B0A6390AE5054D9CB582DA846D7A061B3358B45E2B52DDE63E114397EDB7E09233A579155D795BE76102CF277F4DF8B188C4F2879BEAE3C08347124BF9ED23B128259FE107D
310
31E34A652F090B30B39E0D9AF917B76A2806135621A8A60681F16AF216514BBD02711585B5B1AE823F4B2D0369EA5B6BCB863072727FFC871CA6C9AB79A814D989057E9470A3D238BC87CBB4A0EA49AFE2B86F22E499793CAA9047080450166BDC357524561E258C77CB697F1ABB32562CF87C3B7AA12F911EF19FB3E5C022
310
22E887D08202A60A17151F5E053A86B437771088B4FEE14D652C43E8D939995D34545E12E2FF93D4E366EAD25F10CB7DED141563C3D0C447AF06078A91135FD4B9611583CB4BF3BD167F2399CEAB0E0100F8FFC305F00F1711717173138B4B48C83022295DE657EFEDD97F238ECA80F528AFB4F8D67AD4E2594B9A3AA86D74
310
87EFC313BA95745C186F0CDD84CC12DC9CB0424B42203D351FD9C0A3AF10CC7F388E0329279087386421F194F4A29464C1DEF7EF8BE515E4A199DCD5B909342598D8FE6A231F71336248D5CEC5454455C7BE383B3BC7B260FED27F703FDC39A170F3827239102F59D4DEE7FEF82EAA1A5E4BA94DCC4CC44E7E2EDE20F24244
310
E4454369D2E87C3F823F193FD4FD27E1C23984B01898D15ABC20711A8A558054951A6AE280096BA36CBA439603B7B0B4C45F248C14B2383B4B5CD8ECECE4FF859AD4A6CA2326D020EF090F4041D28DB66E5256B56232CC52829DE8060BAE6BBF37D4B7469B822454FE93210A3E8D15E69FFCF01123222611C51C4FD0A041A0
310
CFA2471CF6BE38D2B20FA4C3525B5B8B586759475CF80ADFE67A284AC24651E52B8E683D24C2622642F27E7C3C22783BCF63648BC398BD6CD0D9C97E7E7E3EACB6126DB7A6C1FD9F1031302EE67ED96F22B77C7CA0239BB324207559B105E4693EB26EC46182A92C9C0DBD24F29B31C5C5AC1F84300E0E17CEEAC15F5736FA
310
4A98971E2F1423BFCD68D4BBD5F86E74B40A369F39507C88FCDB35D2DD8DEBEA4AF999E23CF2816D204200DF6E611781B9884C1AC8888B4DE397320472959434323A5A36B22A8E1F721A270DF3BD65E4A31C11FF048AFB0D8B7B6881423793963A23CFCE935FC189ED36FAE35C46DA3574C979E4394BE52084F3081837BE03
310
3396D2EBD80F1F691B273F660D2B32FA27A33B1DE4ADA5F0FA4651511102DFA410DDA86E065272CA314D5249DF91B06BB92807B28EFD54F08F7B525252782CD276DD02E6B0319B13DF87B1F6361AD6B28FC0D711CF445429B9E5A433CD493051C49A9E03DDB1B147D880253514A5DED88009018620EE229101C041950E2D8A
310
A8E1F5F5438E0C0C0C60EEDEE9E3E0C051948C69F84BB7B2A48A1F3C8EB9E6864687F4F4F6F6E2FA87608ADAF9C5E117B7C1A737E710769DA1D15ECE6A84502AA855398712D5FB51BE92E4EF824969CE18278798AC303C2C7980DD2500ADF8FB1E6D6C2FAAFF9987178923334A244758BAA01A9A1B70FA5097D01E1CC2A58D
310
AD0EC94CE6430AA9B0C10D75E3C6BAC670EFBADEE1607739CE0FC18A2587E3EC3058562014C64219C69BC269082D5C2F4A659278D585755912176D78A1B641719C2A394CED495A1AC5D583FD2F5EDD93308EA7EAE8A6DD396598BDBD3D4CFED62D18A5BDFDE0DD5C80D1A89BA62697B131AE7CE9A6594138582F1B37D68F17
310
49AC7CB67A70695D48A4A056AC1FBD4E82358CEAE38F54B95A9016F9000F9879C0D9D131768635CA798895F27D6F1614F11F2838A83611AA51C9A3DDB539D42979C29F10465655C17BEC3E2760B80DCBF609198C7B171A531905F3EC218D696025975E986C6B4C666666787271F202805577DD5A3EF0CAFAF91B62DC4B2DB4
310
217A7606282F31D8DDBC290593BAA93EA6353AFA9939B877978481E15CFC9F2755CDC00C538F63A4BA3E80AE009B73CA0185687D339A507D165B74290D6EE46D5C58148F020C3668ABE9EF2F7549170DC80DB41FFC1D678FF19AEB10C7133832B104B80F691B3138F97A92D26E551F1F110400D45AC71A9B9AC41A1A1B1DAE
310
ED0B0810638EFFB511D46B121C6FEA0F38CD00E03CFFEB9713FE1F9C263E4DDEC160D0497FA9A132BA608584057FB15380825DE6C7FC3C667EE947D488A09898D8E939C4953BF4EC9836344D2CC6B2971B2A21A572B06096F4982D2CC7232D46E8EA69DC83722E267754D777F97F96D5DA74E1E75178084D0E70F12AD33E5F
310
71EF2AFA599B2BEBF60A5BE475F444F240CBFE8143C334E7ED9150FEEFEF7EB020C4DBED388DD1D6A167A76F3CBF119B578AE8CFA7736ACAFA4440A1C47185638A0D2F3EB5BDDEFDA958FB13CE4AA4923D5BF840392D45544329525749734866684BF7F8D9D54D892E19BCA9F829A0F8BFCBEEA6CFDFC61D74EA1A645ED7A1
310
FF241739F15694BD835B66FEC5677E40FE69BD3F91AE402F036537218A401CB0828604AD189E575015C6F3F6BBC8AC79CF6C70653847254B31551EFCBEB5978B9DB85D58D0FA41A9DFE9C624834AA04949D24B5AE6D299E072D152D12097920F14AA92C31C3B97E28B6C2E6E9C23D63043ECBBC0A60FDF5BD0C33C127EA8A3
310
308B8B6AFFEB28B4455BF6E7AF4FC6222728357EB8E46E85053E6A8843AB23295BF838ABDA94658FEF3F832F147046B4ACD6F7D48E8FCC9618582961C898D1C7A253C91BFECBDA6BA18A1FCF70755DCCEE2222F41B76D23CA98D0CB3D95F0CF66D57FFF65E2A90F5DF40FC3187621E981BD0BC1D992787212688976B94A8F0
310
C6EF646624B570B78E068826F87CE27041A95C9A4871FF65CC17FCB1639629AD6A9517000D63AC231F3D741CB8430777E7ECF80CE7A3F73C0F162F7E56AA71F4DA80A33CD6ACEE78E2C11FAC03DAFCE929B106F8F6B3ED2DC71FF994BD9CEF4E9A94896EF1B6E2B7B4978168BCF0847A3D2A4F1B0500B926E634B174548E9F
310
BAD27153FB5FC36799B1E6C7C38A94E1F9E996796D7B485E635D5287A2AE76FBD11A341DB3F8F810385BB7296391973DC6C37C452A9305AEBBE0CDB6C566DB59FE60C8E94B1FD090354BF51439FFD1B48D725228FFA88C84F686F547107A7A235665A4593B7C34D748C1AC8D56DD5DA861EEFBADDECBBD65117E65851F9035
310
1AEB65F0EFCFF4BCFEF24CB7A5879699FAC437A7AF9099186CF006BB923A59E37D7A36A29FD8D2CBB914A5E9D0A8FD212FBF796AE9A67958FF1D5D8B85F78F96219D4714EB919929241B6C018AAE0C02069F8D919961EC5DDFBFB7573E3AC8E08BFB7C8534BE6DE045B3CD63DBD71F7638BA2309CAE398EA3A7D8F98BBBC7A
310
EB367EFA5CFA27A9F8F2F52FE878058E6209C026453F8E7E8A237DFC389E9590F6059B397CFD65183BBF936E86896612A5B5FEE49DAC8455D026218AFEBEC12B3523A45B57B82C9C97E02ACFA1184DB18E48CF615DBF39C3CC6F0B4AE6BBEEA2E39D944E290302FA3DE33FA7E40296E2EF7BF1CD855BBECFAD0FD622BEE974
310
6FC4FDFDE545AE6E3BC234CADF83A0FB76DFB145BF3828AE3436368AC24989454F8FF70A177672C711CAA1A76107218CF948CA01F873520E7A2B118EBB161ABAD432932029628B6761590C98AB590C8C8C79798CE9F715BA696E839E9131A4BB68BE923F1747FBFF165331FFDD4D05997ACD168F12CA75348DAC04C7F509FE
310
83898A8B421181AF492861CE81E4A2DD0A30850CFA95E05F097FF70F9E777310D584A75BA7018922E271DAB1D785671157685B7D383D3E074DDB4F1E44EF04B07BAAC75A062077C54B9752C738C9D804D402E02851F3F89605AF189738C18C021D2139EAF72513824E10DDD3047BACC8521ED7E98B257D1166903B1B08FA6F
310
918FD7E162913FEC7D0EF4787E29C35FBA8C6E2C9C20E9AB30AE42CA2A01A090E7D010C1B5BF9CEE2A304BF3A987FB40D836979B79E18D70F257DA61E808472DD85B82761825779D6B90CAEB0F23360C6F80A7D7D77545E95B3DFF0CF96A827F9B5BCECD2C9698718417EF80FEEDEE938AFF55859D0D540B7FE09435583A6F
310
04874A0C7E8CF234DF4879722000167F5872CEC6BF3EF7E5A8CC8121E6A359227C8A29C95212F9F735BC72A887D56B8F309FC525BFB4FD767AAEC4AEFF249CFBBD2DE1AB9969A6155C7D8DABC307E47324C1F916C7BCFF40ABA5644E9FFB9238D19ADADA49D9610F01ABBA57E4DFCBDCCBB2B93C8953206C91DE01B0E2651A
310
6D6C31721915B31F7B7CBCE55466F6D70402788FA91D73BE4ADCBA99A35F17D6B83383704917D6833F0FA3CD45C926ADB8BC17999A4A0AFBCE2541F7B8CF4C2F5FBA611B3E626D64407CB32C122DFF4EF8674D6EDBB86C8F7C6A16D50FA685E2CCA34F8F7D1D8265BB0042E9D7F1F666F7BE5FAA5184DF58E12122A42EF02F
310
461B3F369AC746F96528AD208512AB56844CF75B97F352DF7995024FB02855385854F3798670D01CAC771AC3E1889EC25F61A20C1F8CAB46898817F9C47E2CDA1F286BF2F358298709FE567C91133E2638C8B53975E753EA8BFD3578B5F7186B7BF084EBA3F77BAC3132A5779902EC22AF2D2E79F42D324E083386DAEE9810
310
D1B44A5DAA54513C7A71E52A4AB9257D975B621308FE4D2141CC3DCFE946C154A3C1DFCCA7629EC69ACFA831634ADDA93C0388D2A9A2DDAFCF957C6995BCE7FBB6DC4EBAE79E63EB08E9A25F52F67076F7093CA545CA3053B5BF576DEAD4E0017143C5F759F32B2D6F145B52B67B48909B7C7FCA6586EE385A2189C16932CB
310
6DDFD9152AE317C430492A578ED27B72D85D40C7C93C097939E1B50F4D67F05334FE9DC362C30B7FF561B95259138ECFD9274C8D695C31B14D4EAA9F3D7FA8DDF652F8C5DEFA23284C799B7D94416DEE81E05A866302DC70192A5368EA65E1CED8BF107A1E2D3119A71E85DC1A7B0C1E93274CE04DD0F2ABC8AC7C987FDB00
310
2B6F81757B43502EF7A0D92E416494FAEEA4C9C090CD9557AA4D532F4996A272B94355C5A0E4974EEA9627476F30809B94D8D8D860062E02204643BEC7D0438AF800FC7E2B26955D595421E83C69E1A07E0E3122285835F014AD538188CF9737CE76D464A353FA55A001AB2526B84E985083693BC76FE211CA1D000679C889
310
E3C009832C87E1AC2EDD05C302557422DF0800E316FCAC86978A371F025A6C7DAA9F333E7BD160403A1A06EA75AA9888FF01504B0304140006080800897D985051464CB48900000043010000360000006662782F32354537383630352D413143452D343234442D383531302D3137304239363030333544302F646972656374
310
6F72792E786D6C9D8F310EC2300C45AF127987122606C71DD918B841D4B851A43646695A717C52A85029031293A5A76FBF6FACEF7DA7264E43906840EF0FA03836E242F406C6DCEE4EA06AC22492573150D1F66C60C640E8938CB705396EEDD86DE9B5042FE27813D640EA63BB001C722AF6E55CB61E4863F58284D5D3F53D
310
D715CE1C3985E63FD7F1B7EBDD617E9F1E504B0304140006080800897D98507C85B3AE3F070000541C0000340000006662782F32354537383630352D413143452D343234442D383531302D3137304239363030333544302F6F626A656374732E786D6CDD59596FDB3810FE2B84F665F74197AFD885E222B193C228D20635BA
310
D837819628851B5DA0A4C4D95FBF438A942545B6956C0B149B00B14293C3996FEE91F3711F47E889B09CA6C9A5661B968648E2A53E4DC24BAD2C027DAEA18F4BE4B0342D1AFB3494E0985C6A7C595B3A214BCB4C2EF924C065D45DBDBDFE0BE51E498886BC08E7F9A5967B0F24C6062E8BD427F9A3E1E3021B61B0376CA3DA
310
D8261B329C3D74AECA30234901ACC27A0254240776FB5F10C95C3A26DFD0DA361AB66D7C629B29046F334A93BCC089F78AAB0E9DD130AEC6F6647D339A2EF4E96432D627B391AD5FDF5EAF75FB626CAD66ABD5E2EA66A1A1A5B34BD3A8564046121FB4F8A22D6DC7E4DFD4E24B14FAF8F6D224219E44B36F834F245D4AF22E
310
262D606D215A432195AC8D85F140E18F6C1B044A8BA516DA4A38F5D9B4DE74F73780900FB15296136EE579C140D712FBCA1F2CC7AC565B7AA1398A714118C5118AE88E61060A82AD95825A64B8B77052886326B4A8E8357905C33EEF4B7D5C06651471FFD596C2D35CF04752E48233FA0F6107EE9BB7014F206D4993622E85
310
2D5E3220B1704CB1587D371EC92F2B205110E110AC05C4E49BC6A30E5E2B1E0B366B6DF9F976B7DFF2F8D07F79C6D28CB0825B9E7066E9774A830DD302E31B004A856B5B770754BE01F45F00F99A17E480E618DD4FF613253BC3491EA42C06ED200BE916FCB1107F7CF5E498F5E12542AD58790C5370DB1F84694B8CD6DD0D
310
4897CE13187DCAC652B8AD8723B0E93B9A703F074341510A4B10EF83DD5E5B6E2098C2229CC211480FBF8EC91F117C547420DE7434D4177E07284A394CD7CF0EBAFA0436C3A857ABAA25E3317CA73F04DFABF5F6F3B66401F6C89D74EC350968420B48A6FD0CB5406FB9FCF7CD17E191AFE469EDF2E09E30E581A3472F5BA9
310
17241403ACF03C5CA946ACDC5170F728C20949CB5CAEF7052A2F8D52E6EE5EDCCA877BEFFA5319417519F837B780DE6006D9DD6334E3A0684B295E1D098D034E3C0E4A030C2BA5BA3BEC3D72785D0F22D67BF800ABC5AC4BB48C3317C76999F0F0FDDABCBBA219634BFCD8F662642D46F3C5742A0D1E78171728FF51C1A166
310
9FDF14E3ECC835AB96BE64DC5040569E348178D9278307555359B869863D5AF45B43478C812CFB3408CA1CC27A2F301D8E8DB13DADB0517F472364BD61B566EAB4B4922997C638246E80794EECE5AF05684D5C29A917C9304AF39C26241735CDAB58D741D13220745496AEA8F6982DCDDD9814F83D162B9264C76019092217
310
AAAF82D7BFE7ED553128F3ED318ABCD64B1357C8FFE2E638CEA2AAAE3B87813DEADCD08B2B679A5FF104F6E9E2C2B57C22CAF473D4EB48A2F01D447DF16EF247E061F8A7C3A3AEA050AC43563DAF59DB98DA0BFE338730349BDAE3D945AD8A7368A9CB0A5EB74425545ADE8BFB4C68F8302C082A959FBC272751E0D2282A63
310
B7CA210589A16CC345C90679EC0CA249F72219193A2ED1B829A01114D583C3ACA85754C502978982E558986D5C0342D104FABA4182BC92A2D788852E440FCB5BB5F3FA7F3BD5FF1C319BBDCD2379794E99DFCB69BBF450559B2A3278C09439B156AFA0BC749AEE178B66E73C0E13454446B8AAB39016C2C813E5C30CD135F5
310
F61CF9332E3C08A55BF1A95F8347F8C43FD4212D727234A22DE152454DD5B6CDEE08C21D4F20AD626DC3436A0C130ACC23ED1D7F88BE615035548BB9292B21B35ADFF0D466C030E6C0C7095A5F3F6D3B546065F0E97B8E1179EE5090AB2B5EFC9D20F57D73A8713B14A444DF37278E170F65BC4B30E5B9919B05F6B30F1F45
310
FF79694273618EA63717F39935D5AFECD58D3E194DD6FA7C6A5B30EFB0AE1733CB1A4FD796C9489E96CC23B939322D57555B59122AC3A8A01BD285C024E27CBBA8ECB9ABE0FF711712A53B7CCC167FD526A42EF87849D6F1C5A14D486FA0DEBDAD63B05F05EAFE24F6A65ABB9A2F28033F9DB62018A97C3FBCB850A45586EF
310
E7B99111DF98788FF6373F3DC7B4027A6F7E68EDE80BF9ED580CF3AA9E2CA53A6211D756F3358C672D5BBFB2E6537DB2B85EE8F3EBC5AD3EBD58DD58AB9BF97A7C0BCD94EC24642E1C9A577E8918AA986D8CDE60829CA71185413EF1514852E88160523120BEB298E4A2B7810240A671F51661C0E9A76A0E5BE05DA44E7B0F
310
1886D991CCC8A5078354E83B2E35B98E7E83D1299F5E8A8196F10889475ABB864A462F35308182427E3176300213034741BD33E204B5E124E45D5375AAFEFF708CA303B67290ABDE3304172959CB3A619C9089770B10ED5441F27ED1153B0817F0B82B8B5A98C3C2411A09827A8950090793C24709EF1E02CF69B96C43EC69
310
4132689A7FD20E2AAA7A81592846F20DBCAFD6F7269FA66FBEA22C2A43AECE53F9BE4549E775465456832B070C438A9961DE89AF3E98F72C85D75231BAA56004E8F7FD7CF687B94AE3384DAA25F34ABEDC42DB077855E59B6A4C08858B655F98A2EE91AF0260D6951303FBF9232C806A19E5F3D40AE29601D4E1A961004A23
310
5C1770ACB57FB3463209344AD866E9CAE111EF011038127FFFC3DDA6B9A131B4045F00AEAAD96EFDA0161C93C1E07CF92F504B0304140006080800897D985058D91DF0E1000000550100003C0000006662782F32354537383630352D413143452D343234442D383531302D3137304239363030333544302F7265736F757263
310
65732F322F636E782E786D6C4D90CD6A042110845F6510721C758609248BE3BEC49E72598CF61A59B5077F42F2F6D18D819CBAA9FA68AA4B9CBF829F3E21658771270BE56482A8D1B8687752CB6D7E21D3598A8458FE61648A2AC04EBA4CA4B009EB31240337557D57BD8BF721F2AB8508C9E9EB112D99B45739EF24EB0F08
310
8AAA5AD040BE53A38AA20B4D90B1260DED447101C6099D40153044AE7CE533DFE675BB2CCFA76D3B2DAF6F8275528A77443F78170B243C9E56AEB1ADB125E28275408A9ADCA0FA1BCDF88B475B3CC19A2D452EA97530B0F27D34CC0565813D905F570AD69F6CE3D1409BBD10F903504B0304140006080800897D9850FF15A4
310
A45D000000800000003A0000006662782F32354537383630352D413143452D343234442D383531302D3137304239363030333544302F7265736F75726365732F636E782E786D6C4D8B3B0E80201005AF42B6F75B59F0390B113044D83508C6E30BC6C26AF226F3B8BA6360974DA7271430F523308B2B198F9B80925DB70053
310
9227A2FCCB80A18E5640D320F996A81C9F32D6E9129A0D1EF74FCE750E6D57BC7165FBCA07504B0304140006080800897D98505BCFD8334301000056050000300000006662782F32354537383630352D413143452D343234442D383531302D3137304239363030333544302F636E782E786D6CCD94C14AC43010865FA5043C
310
36694B055DD22C78F0093C88B7349DAD71D3A4245371DFDE64EDEE2AB2E8A1B07B0B932FF0FF337F86AF3F0693BD830FDAD98694B4201958E53A6DFB864CB8C9EF48B616DC3B87DF309259394043529908DE7B378D73A9838D9C4CAA1A6DB77351227ADD4E088164CAC8101A12D42B0C92CA095D07614B3B899296D4437093
310
5710DFA31E607EAF3C48848E88AAA88ABCA8F3AA7E2A6F5775BD2AEF5F384BA4E0AD7366E6B545F06EBCA90AE5E2D14639056709107CF27AA69207224EDA68AB2D67F15EF010F5DA7EE67037266E1C8D561263A3985308984708E4C0D9172C384B8E7FF87E7C783E6988A74E7B50E8FCEE626D28CFB5E1288DC644FCAF0B7B
310
F02FF3AE7D8B962F37F7B38667618BD93D2437C4E8FE4E42CC93B4BDB9C60F7094B67CFEE36241ADAED1F441D9429ED97E05C6C1A78D283E01504B0304140006080800897D98508F296E7E7E000000A30000000B0000006662782F636E782E786D6C4D8CD10E822018465F85FDF7D48F89D206B84A1FC4253A164223693D7E
310
D0BCE8EADBCEBE7364F7591D799BF8B2C12B60070462FC3D4CD62F0AD2365301A4D33286B0FDDD80F871350A0A062D9718D273479399C7E40A75D63F7658F1A1150D727A61B781D655DD53C11952D6E2F5DC209E788FD9381625CFAF97B7E4F517504B0304140006080800897D9850A6D797065F0000008200000007000000
310
636E782E786D6C4DCB3B0E80201045D1AD90E9FD7516806B51190811670C8A61F982B1B0BAC9C97B72CA7B1037C6D3332918DA1E04D2CAC69353902EDB8C20262D23F3F59B81A079470595414B17391D1F19B4730A5583A7ED43BBE4025D9592775E5ADFFA01504B0304140006080800897D9850ECFD112DA8000000260100
310
00130000005B436F6E74656E745F54797065735D2E786D6C7D4F4B0EC22010BD0A61DF525D18634ABB506FE00510A79458060253536F2FD89D5197F3FED3F68B9BD80362B21E25DFD40D6780DADF2C1AC9671AAA3D677DD75E9E0112CB5A4C928F44E12044D22338956A1F003333F8E814E5331A1194BE2B0362DB343BA13D
310
122055543278D79E6050F344ECBC6478EDCD76CE8EABAE5449AE4298AC56946789C28AAFBEABC53F3EAF09A84A1441B91F0101CD4780756578C173A578FFDDBD00504B0304140006080800897D98503DEE336E64000000790000001B0000006175746F6465736B2D64657369676E2D7061636B6167652E786D6C35CBC10E83
310
200C00D05F21DCA56CA76D41FC96062B120735B69A7DBE268BB7777961F8D5AF396893C2ADB70FE7ADA196782C2DF776D7A97B5933C430F15651E5469C55D70F80A4992A3ADC954792C525AE70A1E4D6AD9816CC044FEFDF01FE3FDE907802504B0304140006080800897D98508D6D73E9F30000008E0100003D0000006662
310
782F32354537383630352D413143452D343234442D383531302D3137304239363030333544302F7265736F75726365732F322F636F72652E786D6C8550CB6E833010FC15B47703069386C838521AF2053DF566D90EB5126CE44794CFAF1DA8D49E7ADAD5ECCCECEED0E373BE170FE5BCB666005CD6502823ACD4661A20862B
310
DA437164D4591B7ED1A0307C56036418189D9C8DCB06096B8232193556AA0DE4DEAB0085B8A766002FBED4CC4B1E4362F85BB97071E3932A71B9F2188D51CB4DAA6572D357AD1CB0D3D877FD48CE68BCF47B44DA5D874EDD7B8330EE77DD394DDACB1BADB298D1A0E79FEDC2291E9404D6D44D8D6A821AF281BB032107DC7F
310
D22A3319F5C1A59FB7A5F9BB44A7D58AFE718B8BFCDF2D6A13DA66735B151E184EC7BD068C56399D545ED1A59A9364DF504B0304140006080800897D98501FA66167F7000000960100003B0000006662782F32354537383630352D413143452D343234442D383531302D3137304239363030333544302F7265736F75726365
310
732F636F72652E786D6C85504B6EC32010BD8A357B6C63E3348E3091D23827E8AA3B84272E4A0C169FAAC72F24AED4AEBA1AF47EC33C7EFC5AEEC5273AAFAD198096351468949DB4990788E14AF6501C0577D6865F32288C5C70800C83E0B3B371DD20654D4093516327DC40E93D0628D43D3D06F0EA031759CA1892C2DFCA
310
55AA9B9CB1A4E55327788C7ADAAC7A4A69FAAAD181388D7DD78FEC4CC64BBF27ACDD75E4D4BD3684D27ED79D13D35E5E7895CD8207BDFC6C570E65C00944533735A91969D81BED0E8C1D68FFCEABAC14DC07976EDE96E6EB4038F4363A859E574FF64F6A5CA7FF53A336A16DB6D4A7C383A0E9930F42F02AB794C6A3C23473
310
A3E21B504B0304140006080800897D985079B1D342F1000000B1010000310000006662782F32354537383630352D413143452D343234442D383531302D3137304239363030333544302F636F72652E786D6C8D50CB6EC32010FC158B3B36383871224CD434F9839E7A43B0715162B07844FDFC42EC4AED2DA745B333CCECF0
310
E3F774AF1EE083717640B426A802AB9C36761C508A57DCA3EA28B8772EFEA1A1CACA0906546024F8E85D9A5748391BC116D43A0D2B284380882A75CF8F0105F50593AC658A99116EF52CD54D8E50D37AE1091ECDF42B551E64048D444B5A8209C32DFBA0DD81B103DD7FF2A630054FC9E8D5CAE8EC6EAE067C9674975DBF25
310
1D7EA3EF17CC5A76C67D4709A63B72DA6F09D97467C29B22163C449F6F5E3F29D7BD2A5F84FF32A759BF90D9D8B86957C3451190A039CF732178530ACCE3D96E9EA56CF103504B0304140006080800897D9850959AB12154010000DD0200000C0000006662782F636F72652E786D6C8D52CB6EC32010FC158B3B7EC54EE308
310
13294DF2053DF5463071516CB03058F9FC2E7EC8CDA1696509A399DDD9D911E4F0689B6010A6975A952809631408C57525555D22676F7887820325466BFBA30C058AB5A2441E4694D446BB6E86B85656288F2A5D8919647D2F2C0A78039712F5FC4BB42C64CE42457F0F3BC6EFAC1661124E75943827ABB95556A0266F5218
310
448FE7222FCED9099F2FC50E679B6D8E8FF97B8A93A4D8E6276036973712F9664AAC6C97E9DC08664585681AA7318E339C661F49BECFB27D527C92C85752D25B033BCF43FD7688DEAE0F124DF8939EEBAABFF59C547693CE7A53478F6802F6468292C8E703BF31BCE70C6130E467D9B55956B80334086EB5C980A9B45BA981
310
354E80741C8C1F892616944781DF74D2173AAF352028A66AB0C62C5CAFCEFAE9CF9E3A61F0601F81D2A665CD6A6EB2B89EEBA0A7959676AE1B6DFED3BDACBA8419F98749BF01504B0304140006080800897D985020D66B3507010000B201000008000000636F72652E786D6C8D50CB6EC32010FC15B4776CE3471A47984869
310
9C2FE8A9376A8883628365206AFFBE1053A9BDF5B468667667187AFC9C27F490AB55467740B20290D483114A8F1D7877C57B4047465763DC2F1920CD67D9418481D171357E49D060B4933AA2DA0899406EAD748086293C3AB0C34DCE3CE3DE0585BD670B1FEE7C9419C9361DA34ECD3FABC32AB99302585994052E6A5CD66F
310
A439D4F581B4EF348F4A46BD5722592911DCD555C915D8A96F9BB6AFCFB8BFB47B5C57BB069F9AD71213D2EE9A7360AACB0BCDE332A3D6ADE1CFE948C8E990E58FE84BF38D62F4C39829094228818C9EBE8015348FC49FD07E11FF08ADB4ABCA7470DBB0C04808F42482716C308C67BD61C6B6D937504B0102140014000608
310
0800897D98500000000000000000000000003700000000000000000000000000000000006662782F32354537383630352D413143452D343234442D383531302D3137304239363030333544302F617474726962757465732E62696E504B01021400140006080800897D98500000000000000000000000003500000000000000
310
000000000000550000006662782F32354537383630352D413143452D343234442D383531302D3137304239363030333544302F76657274696365732E62696E504B01021400140006080800897D9850F270F13306000000040000003600000000000000000000000000A80000006662782F32354537383630352D413143452D
310
343234442D383531302D3137304239363030333544302F747269616E676C65732E62696E504B01021400140006080800897D985088E57597CD3F0000904100004200000000000000000000000000020100006662782F32354537383630352D413143452D343234442D383531302D3137304239363030333544302F7265736F
310
75726365732F322F305F67656E657269632E706E67504B01021400140006080800897D985051464CB4890000004301000036000000000000000000000000002F4100006662782F32354537383630352D413143452D343234442D383531302D3137304239363030333544302F6469726563746F72792E786D6C504B01021400
310
140006080800897D98507C85B3AE3F070000541C000034000000000000000000000000000C4200006662782F32354537383630352D413143452D343234442D383531302D3137304239363030333544302F6F626A656374732E786D6C504B01021400140006080800897D985058D91DF0E1000000550100003C000000000000
310
000000000000009D4900006662782F32354537383630352D413143452D343234442D383531302D3137304239363030333544302F7265736F75726365732F322F636E782E786D6C504B01021400140006080800897D9850FF15A4A45D000000800000003A00000000000000000000000000D84A00006662782F323545373836
310
30352D413143452D343234442D383531302D3137304239363030333544302F7265736F75726365732F636E782E786D6C504B01021400140006080800897D98505BCFD833430100005605000030000000000000000000000000008D4B00006662782F32354537383630352D413143452D343234442D383531302D3137304239
310
363030333544302F636E782E786D6C504B01021400140006080800897D98508F296E7E7E000000A30000000B000000000000000000000000001E4D00006662782F636E782E786D6C504B01021400140006080800897D9850A6D797065F000000820000000700000000000000000000000000C54D0000636E782E786D6C504B
310
01021400140006080800897D9850ECFD112DA8000000260100001300000000000000000000000000494E00005B436F6E74656E745F54797065735D2E786D6C504B01021400140006080800897D98503DEE336E64000000790000001B00000000000000000000000000224F00006175746F6465736B2D64657369676E2D7061
310
636B6167652E786D6C504B01021400140006080800897D98508D6D73E9F30000008E0100003D00000000000000000000000000BF4F00006662782F32354537383630352D413143452D343234442D383531302D3137304239363030333544302F7265736F75726365732F322F636F72652E786D6C504B010214001400060808
310
00897D98501FA66167F7000000960100003B000000000000000000000000000D5100006662782F32354537383630352D413143452D343234442D383531302D3137304239363030333544302F7265736F75726365732F636F72652E786D6C504B01021400140006080800897D985079B1D342F1000000B10100003100000000
310
0000000000000000005D5200006662782F32354537383630352D413143452D343234442D383531302D3137304239363030333544302F636F72652E786D6C504B01021400140006080800897D9850959AB12154010000DD0200000C000000000000000000000000009D5300006662782F636F72652E786D6C504B0102140014
310
0006080800897D985020D66B3507010000B201000008000000000000000000000000001B550000636F72652E786D6C504B050600000000120012002D060000485600000000
  0
XRECORD
  5
19F3E8
102
{ACAD_REACTORS
330
12A6E8
102
}
330
12A6E8
100
AcDbXrecord
280
     1
102
DISPLAYNAME
  1
Metric50
102
FLAGS
 90
        0
  0
CELLSTYLEMAP
  5
19F3E7
102
{ACAD_REACTORS
330
19F3E6
102
}
330
19F3E6
100
AcDbCellStyleMap
 90
        3
300
CELLSTYLE
  1
TABLEFORMAT_BEGIN
 90
        5
170
     1
 91
        0
 92
    32768
 62
   257
 93
        1
300
CONTENTFORMAT
  1
CONTENTFORMAT_BEGIN
 90
        0
 91
        0
 92
      512
 93
        0
300

 40
0.0
140
1.0
 94
        5
 62
     0
340
11
144
6.0
309
CONTENTFORMAT_END
171
     1
301
MARGIN
  1
CELLMARGIN_BEGIN
 40
1.5
 40
1.5
 40
1.5
 40
1.5
 40
0.18
 40
0.18
309
CELLMARGIN_END
 94
        6
 95
        1
302
GRIDFORMAT
  1
GRIDFORMAT_BEGIN
 90
        0
 91
        1
 62
     0
 92
       -2
340
0
 93
        0
 40
0.045
309
GRIDFORMAT_END
 95
        2
302
GRIDFORMAT
  1
GRIDFORMAT_BEGIN
 90
        0
 91
        1
 62
     0
 92
       -2
340
0
 93
        0
 40
0.045
309
GRIDFORMAT_END
 95
        4
302
GRIDFORMAT
  1
GRIDFORMAT_BEGIN
 90
        0
 91
        1
 62
     0
 92
       -2
340
0
 93
        0
 40
0.045
309
GRIDFORMAT_END
 95
        8
302
GRIDFORMAT
  1
GRIDFORMAT_BEGIN
 90
        0
 91
        1
 62
     0
 92
       -2
340
0
 93
        0
 40
0.045
309
GRIDFORMAT_END
 95
       16
302
GRIDFORMAT
  1
GRIDFORMAT_BEGIN
 90
        0
 91
        1
 62
     0
 92
       -2
340
0
 93
        0
 40
0.045
309
GRIDFORMAT_END
 95
       32
302
GRIDFORMAT
  1
GRIDFORMAT_BEGIN
 90
        0
 91
        1
 62
     0
 92
       -2
340
0
 93
        0
 40
0.045
309
GRIDFORMAT_END
309
TABLEFORMAT_END
  1
CELLSTYLE_BEGIN
 90
        1
 91
        1
300
_TITLE
309
CELLSTYLE_END
300
CELLSTYLE
  1
TABLEFORMAT_BEGIN
 90
        5
170
     1
 91
        0
 92
        0
 62
   257
 93
        1
300
CONTENTFORMAT
  1
CONTENTFORMAT_BEGIN
 90
        0
 91
        0
 92
      512
 93
        0
300

 40
0.0
140
1.0
 94
        5
 62
     0
340
11
144
4.5
309
CONTENTFORMAT_END
171
     1
301
MARGIN
  1
CELLMARGIN_BEGIN
 40
1.5
 40
1.5
 40
1.5
 40
1.5
 40
0.18
 40
0.18
309
CELLMARGIN_END
 94
        6
 95
        1
302
GRIDFORMAT
  1
GRIDFORMAT_BEGIN
 90
        0
 91
        1
 62
     0
 92
       -2
340
0
 93
        0
 40
0.045
309
GRIDFORMAT_END
 95
        2
302
GRIDFORMAT
  1
GRIDFORMAT_BEGIN
 90
        0
 91
        1
 62
     0
 92
       -2
340
0
 93
        0
 40
0.045
309
GRIDFORMAT_END
 95
        4
302
GRIDFORMAT
  1
GRIDFORMAT_BEGIN
 90
        0
 91
        1
 62
     0
 92
       -2
340
0
 93
        0
 40
0.045
309
GRIDFORMAT_END
 95
        8
302
GRIDFORMAT
  1
GRIDFORMAT_BEGIN
 90
        0
 91
        1
 62
     0
 92
       -2
340
0
 93
        0
 40
0.045
309
GRIDFORMAT_END
 95
       16
302
GRIDFORMAT
  1
GRIDFORMAT_BEGIN
 90
        0
 91
        1
 62
     0
 92
       -2
340
0
 93
        0
 40
0.045
309
GRIDFORMAT_END
 95
       32
302
GRIDFORMAT
  1
GRIDFORMAT_BEGIN
 90
        0
 91
        1
 62
     0
 92
       -2
340
0
 93
        0
 40
0.045
309
GRIDFORMAT_END
309
TABLEFORMAT_END
  1
CELLSTYLE_BEGIN
 90
        2
 91
        1
300
_HEADER
309
CELLSTYLE_END
300
CELLSTYLE
  1
TABLEFORMAT_BEGIN
 90
        5
170
     1
 91
        0
 92
        0
 62
   257
 93
        1
300
CONTENTFORMAT
  1
CONTENTFORMAT_BEGIN
 90
        0
 91
        0
 92
      512
 93
        0
300

 40
0.0
140
1.0
 94
        2
 62
     0
340
11
144
4.5
309
CONTENTFORMAT_END
171
     1
301
MARGIN
  1
CELLMARGIN_BEGIN
 40
1.5
 40
1.5
 40
1.5
 40
1.5
 40
0.18
 40
0.18
309
CELLMARGIN_END
 94
        6
 95
        1
302
GRIDFORMAT
  1
GRIDFORMAT_BEGIN
 90
        0
 91
        1
 62
     0
 92
       -2
340
0
 93
        0
 40
0.045
309
GRIDFORMAT_END
 95
        2
302
GRIDFORMAT
  1
GRIDFORMAT_BEGIN
 90
        0
 91
        1
 62
     0
 92
       -2
340
0
 93
        0
 40
0.045
309
GRIDFORMAT_END
 95
        4
302
GRIDFORMAT
  1
GRIDFORMAT_BEGIN
 90
        0
 91
        1
 62
     0
 92
       -2
340
0
 93
        0
 40
0.045
309
GRIDFORMAT_END
 95
        8
302
GRIDFORMAT
  1
GRIDFORMAT_BEGIN
 90
        0
 91
        1
 62
     0
 92
       -2
340
0
 93
        0
 40
0.045
309
GRIDFORMAT_END
 95
       16
302
GRIDFORMAT
  1
GRIDFORMAT_BEGIN
 90
        0
 91
        1
 62
     0
 92
       -2
340
0
 93
        0
 40
0.045
309
GRIDFORMAT_END
 95
       32
302
GRIDFORMAT
  1
GRIDFORMAT_BEGIN
 90
        0
 91
        1
 62
     0
 92
       -2
340
0
 93
        0
 40
0.045
309
GRIDFORMAT_END
309
TABLEFORMAT_END
  1
CELLSTYLE_BEGIN
 90
        3
 91
        2
300
_DATA
309
CELLSTYLE_END
  0
ENDSEC
  0
SECTION
  2
ACDSDATA
 70
     2
 71
     8
  0
ACDSSCHEMA
 90
        0
  1
AcDb_Thumbnail_Schema
  2
AcDbDs::ID
280
    10
 91
        8
  2
Thumbnail_Data
280
    15
 91
        0
101
ACDSRECORD
 95
        0
 90
        2
  2
AcDbDs::TreatedAsObjectData
280
     1
291
     1
101
ACDSRECORD
 95
        0
 90
        3
  2
AcDbDs::Legacy
280
     1
291
     1
101
ACDSRECORD
  1
AcDbDs::ID
 90
        4
  2
AcDs:Indexable
280
     1
291
     1
101
ACDSRECORD
  1
AcDbDs::ID
 90
        5
  2
AcDbDs::HandleAttribute
280
     7
282
     1
  0
ACDSSCHEMA
 90
        1
  1
AcDb3DSolid_ASM_Data
  2
AcDbDs::ID
280
    10
 91
        8
  2
ASM_Data
280
    15
 91
        0
101
ACDSRECORD
 95
        1
 90
        2
  2
AcDbDs::TreatedAsObjectData
280
     1
291
     1
101
ACDSRECORD
 95
        1
 90
        3
  2
AcDbDs::Legacy
280
     1
291
     1
101
ACDSRECORD
  1
AcDbDs::ID
 90
        4
  2
AcDs:Indexable
280
     1
291
     1
101
ACDSRECORD
  1
AcDbDs::ID
 90
        5
  2
AcDbDs::HandleAttribute
280
     7
282
     1
  0
ACDSSCHEMA
 90
        2
  1
AcDbDs::TreatedAsObjectDataSchema
  2
AcDbDs::TreatedAsObjectData
280
     1
 91
        0
  0
ACDSSCHEMA
 90
        3
  1
AcDbDs::LegacySchema
  2
AcDbDs::Legacy
280
     1
 91
        0
  0
ACDSSCHEMA
 90
        4
  1
AcDbDs::IndexedPropertySchema
  2
AcDs:Indexable
280
     1
 91
        0
  0
ACDSSCHEMA
 90
        5
  1
AcDbDs::HandleAttributeSchema
  2
AcDbDs::HandleAttribute
280
     7
 91
        1
284
     1
  0
ACDSRECORD
 90
        0
  2
AcDbDs::ID
280
    10
320
22
  2
Thumbnail_Data
280
    15
 94
     2152
310
89504E470D0A1A0A0000000D4948445200000100000000680803000000297CDED700000300504C5445212830000000C8C8C80000000000000000000000000000000000000000000000000000330000660000990000CC0000FF0033000033330033660033990033CC0033FF0066000066330066660066990066CC0066FF0099
310
000099330099660099990099CC0099FF00CC0000CC3300CC6600CC9900CCCC00CCFF00FF0000FF3300FF6600FF9900FFCC00FFFF3300003300333300663300993300CC3300FF3333003333333333663333993333CC3333FF3366003366333366663366993366CC3366FF3399003399333399663399993399CC3399FF33CC00
310
33CC3333CC6633CC9933CCCC33CCFF33FF0033FF3333FF6633FF9933FFCC33FFFF6600006600336600666600996600CC6600FF6633006633336633666633996633CC6633FF6666006666336666666666996666CC6666FF6699006699336699666699996699CC6699FF66CC0066CC3366CC6666CC9966CCCC66CCFF66FF0066
310
FF3366FF6666FF9966FFCC66FFFF9900009900339900669900999900CC9900FF9933009933339933669933999933CC9933FF9966009966339966669966999966CC9966FF9999009999339999669999999999CC9999FF99CC0099CC3399CC6699CC9999CCCC99CCFF99FF0099FF3399FF6699FF9999FFCC99FFFFCC0000CC00
310
33CC0066CC0099CC00CCCC00FFCC3300CC3333CC3366CC3399CC33CCCC33FFCC6600CC6633CC6666CC6699CC66CCCC66FFCC9900CC9933CC9966CC9999CC99CCCC99FFCCCC00CCCC33CCCC66CCCC99CCCCCCCCCCFFCCFF00CCFF33CCFF66CCFF99CCFFCCCCFFFFFF0000FF0033FF0066FF0099FF00CCFF00FFFF3300FF3333
310
FF3366FF3399FF33CCFF33FFFF6600FF6633FF6666FF6699FF66CCFF66FFFF9900FF9933FF9966FF9999FF99CCFF99FFFFCC00FFCC33FFCC66FFCC99FFCCCCFFCCFFFFFF00FFFF33FFFF66FFFF99FFFFCCFFFFFF0000000D0D0D1A1A1A2828283535354343435050505D5D5D6B6B6B787878868686939393A1A1A1AEAEAEBB
310
BBBBC9C9C9D6D6D6E4E4E4F1F1F1FFFFFF000000000000000000000000000000000000000000000000000000000000B21171F6000002494944415478DAED9BB172A5300C45F5396EF8FFCE93193A7F8287E6B5AF4AB1EA57920D818497C9EC6CB1AB7B0F4598248D0E928CC088104208218410420821841042082184104208
310
2184FC19EB0FC92BE0AFFEDB7F29A0FD04B80C68FB0F757267C06D6C6DC46D02C41DA416A03AAFF25D06F81FB20B58BF2B019D35905A807E6608687100F48023EE769C18EA87C649F655E07AE901EF03F6B0DFDEC105885000055000A400F455E04C556C01D50E6401C50D545C01CD0DBC4802040176E76F065E94018000ED
310
3EF4B8817A5306F90558F0BDEBA8829B24482FC046FFDEBBCDBE167FB9C981E4024ACCFC262072A0E209D0128F7F5C81F7819B22C82D40F71C187D6018D8B07A40D9DAE883D6077AF34EB85528019BB8813EFA8019302E55905F80133530ABA094ED7C5B9C5DC056C2405481B7C130706E85A905E89E012309BAAA14AB82BA
310
9C96C3DC022CCE520E03457595A2ED723F903C03AA9420AA404D80FA68A0CB8C7F81C88029601828C5DF0B2D237C23BF0063B5B57F2E05E6C29F102E4BC40F900131014E017E57EC7DC01AC12E00A00718CF2940DC80C76F2C91FE10AB407D3E9F3204F85CE07DF0B2370CA004F60CB0536B808224A01E84007F3A68BF3707
310
2BC82C50E52C40E608A038E3F035030E01971766E9670189440801FBFD2FAA807A1600B20A4C0155BE08381420BC19AA721580D3044FD77B7BB55300E3DDE0371B2510B6CB6BBBEE8D6CED630B65C3FC60C2027F8408983D429F925F7FB587197828CE1EA12F19D05032E05EC0475EF0A3A9BC02D03F9B2384104208218410
310
42C8BFCB6F183D2AA98C55033F0000000049454E44AE426082C43509C06C1740B8F2B12460878280D23A1230DB04A02D5EEE5A10B04349800118B35500A0F1CACEA20AEC3026A04C2A83CD01081AB7987E2490949008ACEA8985008040C0720D10816C066557FCE193631900C2FA77D078E903D90B5257AC579C1A8A00409F
310
7F2181EC0336259FBA62B58280A06950573E5035C54CA35A2A75667B005CE903755308158170F8DD320DC85280537ADA0FE4AEB822E09659A12C0044C0E25951A9019BD7885215B86546200D001140046AD41456041401B84D405A093887B321F9C0A8292C0884BFCB7A226126A8220162306A0A33014D9DF1829E489A0258
310
04D107464D217E5C60A96508BC167404E24AC023D06EE4031900607FC000B45940406009382250F8406A0A61D0E1156B202D92CD111059025405C907525308007E9C7DC047C73DD19C11C82B01472A70850FA495011BCE19874B04AE8AE0FB03806909B848A0EA0730FFF0B60F119004C0D531EA0782FE19D48480D906004D
310
137C1F66386C07CA7EC0A7CF00C604E6D78A45016002CFB8A5E3FA005682F77F1DAE20C65B2FD504702A30823D20AEF5EA44203ECA7E403300A0D5235C27C3D16E7EA9588202A28DD1418FD987A7D2075800C004F81A12E83A35BB542E4101D1C10A0F6002D579812601D0F5F39A564A4141377F3E20C5030C2BA0F2009E0B
310
A20FA006BC17D28F81EF8FFCCBAE9BFEEAAECBA3624CD0D7819E443C338A3E4004703200F2842D0030A3E89FE397465CEA8A930FF83F3A12C05BE65C0010D24FC32200A8D8CEA399F5CFBC01861BA2D207D829E9DB365E3ED7002859004A17EB9FD365E20840E57E80DA23F20AFE6251916BCCBF1A11D4086500B1ABA31250
310
442020709940BA61DC4402F5804C00DCDA1A870C8800D64022906F983796C0E8B5080049FFA8FD0020298000A8E4034C80F4DF6F0540BC048A201000933D2012C83E40C79F6F9E5F673CE621A904CCD8035209A8DA07E2FD0209405FE63CF1C42F07F00F4E691F85A1DD8F950000000049454E44AE426082
  0
ENDSEC
  0
EOF
